<?xml version="1.0" standalone="no"?>
<!DOCTYPE svg PUBLIC "-//W3C//DTD SVG 1.1//EN" "http://www.w3.org/Graphics/SVG/1.1/DTD/svg11.dtd" >
<svg xmlns="http://www.w3.org/2000/svg" xmlns:xlink="http://www.w3.org/1999/xlink" version="1.1">
<metadata>
Created by FontForge 20230101 at Fri Nov  1 07:58:06 2024
 By ACM
(c) 2020, 2024 Braille Institute of America, Inc., a 501(c)(3) Charitable Organization.
</metadata>
<defs>
<font id="AtkinsonHyperlegibleNext-Regular" horiz-adv-x="0" >
  <font-face 
    font-family="Atkinson Hyperlegible Next"
    font-weight="400"
    font-stretch="normal"
    units-per-em="1000"
    panose-1="0 0 0 0 0 0 0 0 0 0"
    ascent="800"
    descent="-200"
    x-height="496"
    cap-height="668"
    bbox="-61 -250 1289 888"
    underline-thickness="56"
    underline-position="-106"
    unicode-range="U+0020-266A"
  />
<missing-glyph horiz-adv-x="527" 
d="M50 700h427v-700h-427v700zM449 21l-185 308l-185 -308h370zM251 350l-180 300v-601zM457 652l-181 -302l181 -303v605zM449 680h-371l185 -309z" />
    <glyph glyph-name=".notdef" horiz-adv-x="527" 
d="M50 700h427v-700h-427v700zM449 21l-185 308l-185 -308h370zM251 350l-180 300v-601zM457 652l-181 -302l181 -303v605zM449 680h-371l185 -309z" />
    <glyph glyph-name="space" unicode=" " horiz-adv-x="280" 
 />
    <glyph glyph-name="A" unicode="A" horiz-adv-x="626" 
d="M261 668h105l250 -668h-100l-52 146h-302l-52 -146h-100zM436 227l-123 346l-123 -346h246z" />
    <glyph glyph-name="Aacute" unicode="&#xc1;" horiz-adv-x="626" 
d="M261 668h105l250 -668h-100l-52 146h-302l-52 -146h-100zM436 227l-123 346l-123 -346h246zM392.5 857.5q10.5 5.5 20.5 5.5q16 0 26.5 -9.5t10.5 -25.5q0 -13 -8.5 -24t-31.5 -25l-57 -35h-76l91 94q14 14 24.5 19.5z" />
    <glyph glyph-name="Abreve" unicode="&#x102;" horiz-adv-x="626" 
d="M261 668h105l250 -668h-100l-52 146h-302l-52 -146h-100zM436 227l-123 346l-123 -346h246zM217.5 775q-40.5 34 -51.5 86h68q8 -23 29.5 -38t48.5 -15q26 0 47.5 15t30.5 38h68q-11 -52 -52 -86t-94 -34q-54 0 -94.5 34z" />
    <glyph glyph-name="Acircumflex" unicode="&#xc2;" horiz-adv-x="626" 
d="M261 668h105l250 -668h-100l-52 146h-302l-52 -146h-100zM436 227l-123 346l-123 -346h246zM313 867q29 0 49 -19l112 -101h-94l-68 61l-67 -61h-94l112 101q20 19 50 19z" />
    <glyph glyph-name="Adieresis" unicode="&#xc4;" horiz-adv-x="626" 
d="M261 668h105l250 -668h-100l-52 146h-302l-52 -146h-100zM436 227l-123 346l-123 -346h246zM365 756q-16 16 -16 38q0 23 16 38.5t38 15.5q23 0 38.5 -15.5t15.5 -38.5q0 -22 -15.5 -38t-38.5 -16q-22 0 -38 16zM185 756q-16 16 -16 38q0 23 16 38.5t38 15.5
q23 0 38.5 -15.5t15.5 -38.5q0 -22 -15.5 -38t-38.5 -16q-22 0 -38 16z" />
    <glyph glyph-name="Agrave" unicode="&#xc0;" horiz-adv-x="626" 
d="M261 668h105l250 -668h-100l-52 146h-302l-52 -146h-100zM436 227l-123 346l-123 -346h246zM184.5 804q-8.5 11 -8.5 24q0 16 10.5 25.5t26.5 9.5q10 0 20.5 -5.5t24.5 -19.5l91 -94h-76l-57 35q-23 14 -31.5 25z" />
    <glyph glyph-name="Amacron" unicode="&#x100;" horiz-adv-x="626" 
d="M261 668h105l250 -668h-100l-52 146h-302l-52 -146h-100zM436 227l-123 346l-123 -346h246zM175 829h276v-67h-276v67z" />
    <glyph glyph-name="Aogonek" unicode="&#x104;" horiz-adv-x="626" 
d="M487 -151q-28 22 -28 60q0 59 56 93l-51 144h-302l-52 -146h-100l251 668h105l250 -668q-45 -16 -66 -33t-21 -41q0 -20 13.5 -30.5t35.5 -10.5q21 0 38 8v-54q-28 -12 -59 -12q-42 0 -70 22zM436 227l-123 346l-123 -346h246z" />
    <glyph glyph-name="Aring" unicode="&#xc5;" horiz-adv-x="626" 
d="M216.5 678q-12.5 24 -12.5 51q0 45 31.5 77t77.5 32t77.5 -32t31.5 -77q0 -27 -12.5 -50.5t-33.5 -38.5l240 -640h-100l-52 146h-302l-52 -146h-100l240 640q-21 14 -33.5 38zM436 227l-123 346l-123 -346h246zM350 692.5q15 14.5 15 36.5t-15 36.5t-37 14.5t-37 -14.5
t-15 -36.5t15 -36.5t37 -14.5t37 14.5z" />
    <glyph glyph-name="Atilde" unicode="&#xc3;" horiz-adv-x="626" 
d="M261 668h105l250 -668h-100l-52 146h-302l-52 -146h-100zM436 227l-123 346l-123 -346h246zM344 753q-16 6 -37 18q-18 10 -29 14.5t-23 4.5q-18 0 -29 -10.5t-13 -30.5h-65q9 52 37 78t69 26q20 0 35.5 -6t35.5 -18q32 -19 53 -19q14 0 23 5.5t16 17.5q11 19 29 19
q12 0 21.5 -9t9.5 -22q0 -12 -12 -30t-34 -31t-51 -13q-20 0 -36 6z" />
    <glyph glyph-name="AE" unicode="&#xc6;" horiz-adv-x="891" 
d="M377 668h476v-81h-329v-203h235v-81h-235v-222h329v-81h-423v146h-247l-80 -146h-103zM430 227v368l-202 -368h202z" />
    <glyph glyph-name="B" unicode="B" horiz-adv-x="613" 
d="M78 668h259q101 0 158.5 -48t57.5 -125q0 -46 -21.5 -84.5t-67.5 -59.5q62 -23 89.5 -64.5t27.5 -93.5q0 -55 -27.5 -99t-79.5 -69t-121 -25h-275v668zM452 112q34 33 34 83q0 49 -34 81t-102 32h-178v-229h178q68 0 102 33zM430.5 410q28.5 28 28.5 75q0 49 -32 76.5
t-93 27.5h-162v-207h172q58 0 86.5 28z" />
    <glyph glyph-name="C" unicode="C" horiz-adv-x="645" 
d="M184.5 32q-68.5 44 -104.5 122.5t-36 180.5q0 103 38.5 181t108.5 121t164 43q85 0 152 -39.5t101 -111.5l-82 -30q-24 47 -68.5 74.5t-107.5 27.5q-60 0 -107.5 -30.5t-75 -90.5t-27.5 -145q0 -82 27 -143t75 -93t111 -32t108 27t69 75l82 -30q-35 -73 -105 -112
t-160 -39q-94 0 -162.5 44z" />
    <glyph glyph-name="Cacute" unicode="&#x106;" horiz-adv-x="645" 
d="M184.5 32q-68.5 44 -104.5 122.5t-36 180.5q0 103 38.5 181t108.5 121t164 43q85 0 152 -39.5t101 -111.5l-82 -30q-24 47 -68.5 74.5t-107.5 27.5q-60 0 -107.5 -30.5t-75 -90.5t-27.5 -145q0 -82 27 -143t75 -93t111 -32t108 27t69 75l82 -30q-35 -73 -105 -112
t-160 -39q-94 0 -162.5 44zM431.5 857.5q10.5 5.5 20.5 5.5q16 0 26.5 -9.5t10.5 -25.5q0 -13 -8.5 -24t-31.5 -25l-57 -35h-76l91 94q14 14 24.5 19.5z" />
    <glyph glyph-name="Ccaron" unicode="&#x10c;" horiz-adv-x="645" 
d="M184.5 32q-68.5 44 -104.5 122.5t-36 180.5q0 103 38.5 181t108.5 121t164 43q85 0 152 -39.5t101 -111.5l-82 -30q-24 47 -68.5 74.5t-107.5 27.5q-60 0 -107.5 -30.5t-75 -90.5t-27.5 -145q0 -82 27 -143t75 -93t111 -32t108 27t69 75l82 -30q-35 -73 -105 -112
t-160 -39q-94 0 -162.5 44zM302 760l-112 101h94l67 -61l68 61h94l-112 -101q-20 -19 -49 -19q-30 0 -50 19z" />
    <glyph glyph-name="Ccedilla" unicode="&#xc7;" horiz-adv-x="645" 
d="M254 -163l14 35q32 -14 58 -14q28 0 40.5 10t12.5 24q0 13 -9.5 21t-28.5 8q-17 0 -33 -4q-3 -1 -9 -1q-8 0 -13 4.5t-5 11.5q0 3 4 11l29 46q-84 8 -145 53.5t-93 121t-32 171.5q0 103 38.5 181t108.5 121t164 43q85 0 152 -39.5t101 -111.5l-82 -30q-24 47 -68.5 74.5
t-107.5 27.5q-60 0 -107.5 -30.5t-75 -90.5t-27.5 -145q0 -82 27 -143t75 -93t111 -32t108 27t69 75l82 -30q-34 -70 -100.5 -109t-151.5 -42l-20 -33q22 4 30 4q33 0 51 -18.5t18 -44.5q0 -31 -25.5 -55t-71.5 -24q-39 0 -88 20z" />
    <glyph glyph-name="Cdotaccent" unicode="&#x10a;" horiz-adv-x="645" 
d="M184.5 32q-68.5 44 -104.5 122.5t-36 180.5q0 103 38.5 181t108.5 121t164 43q85 0 152 -39.5t101 -111.5l-82 -30q-24 47 -68.5 74.5t-107.5 27.5q-60 0 -107.5 -30.5t-75 -90.5t-27.5 -145q0 -82 27 -143t75 -93t111 -32t108 27t69 75l82 -30q-35 -73 -105 -112
t-160 -39q-94 0 -162.5 44zM314 756q-16 16 -16 38q0 23 16 38.5t38 15.5q23 0 38.5 -15.5t15.5 -38.5q0 -22 -15.5 -38t-38.5 -16q-22 0 -38 16z" />
    <glyph glyph-name="D" unicode="D" horiz-adv-x="669" 
d="M78 668h182q176 0 270.5 -78t94.5 -255q0 -181 -96 -258t-269 -77h-182v668zM400.5 99q58.5 20 93.5 76t35 160q0 103 -35 158.5t-93.5 75.5t-142.5 20h-86v-510h86q84 0 142.5 20z" />
    <glyph glyph-name="Dcaron" unicode="&#x10e;" horiz-adv-x="669" 
d="M78 668h182q176 0 270.5 -78t94.5 -255q0 -181 -96 -258t-269 -77h-182v668zM400.5 99q58.5 20 93.5 76t35 160q0 103 -35 158.5t-93.5 75.5t-142.5 20h-86v-510h86q84 0 142.5 20zM269 760l-112 101h94l67 -61l68 61h94l-112 -101q-20 -19 -49 -19q-30 0 -50 19z" />
    <glyph glyph-name="Dcroat" unicode="&#x110;" horiz-adv-x="689" 
d="M98 309h-67v79h67v280h182q176 0 270.5 -78t94.5 -255q0 -181 -96 -258t-269 -77h-182v309zM420.5 99q58.5 20 93.5 76t35 160q0 103 -35 158.5t-93.5 75.5t-142.5 20h-86v-201h190v-79h-190v-230h86q84 0 142.5 20z" />
    <glyph glyph-name="Eth" unicode="&#xd0;" horiz-adv-x="689" 
d="M98 309h-67v79h67v280h182q176 0 270.5 -78t94.5 -255q0 -181 -96 -258t-269 -77h-182v309zM420.5 99q58.5 20 93.5 76t35 160q0 103 -35 158.5t-93.5 75.5t-142.5 20h-86v-201h190v-79h-190v-230h86q84 0 142.5 20z" />
    <glyph glyph-name="E" unicode="E" horiz-adv-x="569" 
d="M78 668h449v-81h-355v-203h265v-81h-265v-222h359v-81h-453v668z" />
    <glyph glyph-name="Eacute" unicode="&#xc9;" horiz-adv-x="569" 
d="M78 668h449v-81h-355v-203h265v-81h-265v-222h359v-81h-453v668zM384.5 857.5q10.5 5.5 20.5 5.5q16 0 26.5 -9.5t10.5 -25.5q0 -13 -8.5 -24t-31.5 -25l-57 -35h-76l91 94q14 14 24.5 19.5z" />
    <glyph glyph-name="Ecaron" unicode="&#x11a;" horiz-adv-x="569" 
d="M78 668h449v-81h-355v-203h265v-81h-265v-222h359v-81h-453v668zM255 760l-112 101h94l67 -61l68 61h94l-112 -101q-20 -19 -49 -19q-30 0 -50 19z" />
    <glyph glyph-name="Ecircumflex" unicode="&#xca;" horiz-adv-x="569" 
d="M78 668h449v-81h-355v-203h265v-81h-265v-222h359v-81h-453v668zM305 867q29 0 49 -19l112 -101h-94l-68 61l-67 -61h-94l112 101q20 19 50 19z" />
    <glyph glyph-name="Edieresis" unicode="&#xcb;" horiz-adv-x="569" 
d="M78 668h449v-81h-355v-203h265v-81h-265v-222h359v-81h-453v668zM357 756q-16 16 -16 38q0 23 16 38.5t38 15.5q23 0 38.5 -15.5t15.5 -38.5q0 -22 -15.5 -38t-38.5 -16q-22 0 -38 16zM177 756q-16 16 -16 38q0 23 16 38.5t38 15.5q23 0 38.5 -15.5t15.5 -38.5
q0 -22 -15.5 -38t-38.5 -16q-22 0 -38 16z" />
    <glyph glyph-name="Edotaccent" unicode="&#x116;" horiz-adv-x="569" 
d="M78 668h449v-81h-355v-203h265v-81h-265v-222h359v-81h-453v668zM267 756q-16 16 -16 38q0 23 16 38.5t38 15.5q23 0 38.5 -15.5t15.5 -38.5q0 -22 -15.5 -38t-38.5 -16q-22 0 -38 16z" />
    <glyph glyph-name="Egrave" unicode="&#xc8;" horiz-adv-x="569" 
d="M78 668h449v-81h-355v-203h265v-81h-265v-222h359v-81h-453v668zM176.5 804q-8.5 11 -8.5 24q0 16 10.5 25.5t26.5 9.5q10 0 20.5 -5.5t24.5 -19.5l91 -94h-76l-57 35q-23 14 -31.5 25z" />
    <glyph glyph-name="Emacron" unicode="&#x112;" horiz-adv-x="569" 
d="M78 668h449v-81h-355v-203h265v-81h-265v-222h359v-81h-453v668zM167 829h276v-67h-276v67z" />
    <glyph glyph-name="Eogonek" unicode="&#x118;" horiz-adv-x="569" 
d="M78 668h449v-81h-355v-203h265v-81h-265v-222h359v-81q-45 -16 -66 -33t-21 -41q0 -20 13.5 -30.5t35.5 -10.5q21 0 38 8v-54q-28 -12 -59 -12q-42 0 -70 22t-28 60q0 58 52 91h-348v668z" />
    <glyph glyph-name="F" unicode="F" horiz-adv-x="552" 
d="M78 668h434v-81h-340v-203h336v-81h-336v-303h-94v668z" />
    <glyph glyph-name="G" unicode="G" horiz-adv-x="694" 
d="M184 32q-68 44 -104 122.5t-36 180.5q0 103 39 181t109.5 121t164.5 43q86 0 153.5 -39t101.5 -112l-84 -31q-23 48 -68 75.5t-108 27.5q-60 0 -108 -31t-76 -91t-28 -144q0 -83 26.5 -143.5t74 -92.5t109.5 -32q80 0 138.5 40.5t58.5 134.5v22h-195v81h284v-345h-54
l-25 84q-31 -49 -85.5 -72.5t-125.5 -23.5q-94 0 -162 44z" />
    <glyph glyph-name="Gbreve" unicode="&#x11e;" horiz-adv-x="694" 
d="M184 32q-68 44 -104 122.5t-36 180.5q0 103 39 181t109.5 121t164.5 43q86 0 153.5 -39t101.5 -112l-84 -31q-23 48 -68 75.5t-108 27.5q-60 0 -108 -31t-76 -91t-28 -144q0 -83 26.5 -143.5t74 -92.5t109.5 -32q80 0 138.5 40.5t58.5 134.5v22h-195v81h284v-345h-54
l-25 84q-31 -49 -85.5 -72.5t-125.5 -23.5q-94 0 -162 44zM253.5 775q-40.5 34 -51.5 86h68q8 -23 29.5 -38t48.5 -15q26 0 47.5 15t30.5 38h68q-11 -52 -52 -86t-94 -34q-54 0 -94.5 34z" />
    <glyph glyph-name="uni0122" unicode="&#x122;" horiz-adv-x="694" 
d="M184 32q-68 44 -104 122.5t-36 180.5q0 103 39 181t109.5 121t164.5 43q86 0 153.5 -39t101.5 -112l-84 -31q-23 48 -68 75.5t-108 27.5q-60 0 -108 -31t-76 -91t-28 -144q0 -83 26.5 -143.5t74 -92.5t109.5 -32q80 0 138.5 40.5t58.5 134.5v22h-195v81h284v-345h-54
l-25 84q-31 -49 -85.5 -72.5t-125.5 -23.5q-94 0 -162 44zM322 -202q29 14 29 55q0 21 -12 38.5t-38 26.5l60 26q28 -15 42 -38t14 -49q0 -47 -33.5 -77t-86.5 -30l-40 34q36 0 65 14z" />
    <glyph glyph-name="Gdotaccent" unicode="&#x120;" horiz-adv-x="694" 
d="M184 32q-68 44 -104 122.5t-36 180.5q0 103 39 181t109.5 121t164.5 43q86 0 153.5 -39t101.5 -112l-84 -31q-23 48 -68 75.5t-108 27.5q-60 0 -108 -31t-76 -91t-28 -144q0 -83 26.5 -143.5t74 -92.5t109.5 -32q80 0 138.5 40.5t58.5 134.5v22h-195v81h284v-345h-54
l-25 84q-31 -49 -85.5 -72.5t-125.5 -23.5q-94 0 -162 44zM311 756q-16 16 -16 38q0 23 16 38.5t38 15.5q23 0 38.5 -15.5t15.5 -38.5q0 -22 -15.5 -38t-38.5 -16q-22 0 -38 16z" />
    <glyph glyph-name="H" unicode="H" horiz-adv-x="694" 
d="M78 668h94v-284h350v284h94v-668h-94v303h-350v-303h-94v668z" />
    <glyph glyph-name="Hbar" unicode="&#x126;" horiz-adv-x="694" 
d="M78 506h-67v76h67v86h94v-86h350v86h94v-86h67v-76h-67v-506h-94v303h-350v-303h-94v506zM522 384v122h-350v-122h350z" />
    <glyph glyph-name="I" unicode="I" horiz-adv-x="392" 
d="M55 70h94v528h-94v70h282v-70h-94v-528h94v-70h-282v70z" />
    <glyph glyph-name="IJ" unicode="&#x132;" horiz-adv-x="904" 
d="M55 70h94v528h-94v70h282v-70h-94v-528h94v-70h-282v70zM466 39.5q-55 51.5 -59 149.5l87 25q-2 -72 33 -110.5t89 -38.5q49 0 82.5 33t33.5 115v455h94v-456q0 -108 -55.5 -166t-154.5 -58q-95 0 -150 51.5z" />
    <glyph glyph-name="Iacute" unicode="&#xcd;" horiz-adv-x="392" 
d="M55 70h94v528h-94v70h282v-70h-94v-528h94v-70h-282v70zM275.5 857.5q10.5 5.5 20.5 5.5q16 0 26.5 -9.5t10.5 -25.5q0 -13 -8.5 -24t-31.5 -25l-57 -35h-76l91 94q14 14 24.5 19.5z" />
    <glyph glyph-name="Icircumflex" unicode="&#xce;" horiz-adv-x="392" 
d="M55 70h94v528h-94v70h282v-70h-94v-528h94v-70h-282v70zM196 867q29 0 49 -19l112 -101h-94l-68 61l-67 -61h-94l112 101q20 19 50 19z" />
    <glyph glyph-name="Idieresis" unicode="&#xcf;" horiz-adv-x="392" 
d="M55 70h94v528h-94v70h282v-70h-94v-528h94v-70h-282v70zM248 756q-16 16 -16 38q0 23 16 38.5t38 15.5q23 0 38.5 -15.5t15.5 -38.5q0 -22 -15.5 -38t-38.5 -16q-22 0 -38 16zM68 756q-16 16 -16 38q0 23 16 38.5t38 15.5q23 0 38.5 -15.5t15.5 -38.5q0 -22 -15.5 -38
t-38.5 -16q-22 0 -38 16z" />
    <glyph glyph-name="Idotaccent" unicode="&#x130;" horiz-adv-x="392" 
d="M55 70h94v528h-94v70h282v-70h-94v-528h94v-70h-282v70zM158 756q-16 16 -16 38q0 23 16 38.5t38 15.5q23 0 38.5 -15.5t15.5 -38.5q0 -22 -15.5 -38t-38.5 -16q-22 0 -38 16z" />
    <glyph glyph-name="Igrave" unicode="&#xcc;" horiz-adv-x="392" 
d="M55 70h94v528h-94v70h282v-70h-94v-528h94v-70h-282v70zM67.5 804q-8.5 11 -8.5 24q0 16 10.5 25.5t26.5 9.5q10 0 20.5 -5.5t24.5 -19.5l91 -94h-76l-57 35q-23 14 -31.5 25z" />
    <glyph glyph-name="Imacron" unicode="&#x12a;" horiz-adv-x="392" 
d="M55 70h94v528h-94v70h282v-70h-94v-528h94v-70h-282v70zM58 829h276v-67h-276v67z" />
    <glyph glyph-name="Iogonek" unicode="&#x12e;" horiz-adv-x="392" 
d="M55 70h94v528h-94v70h282v-70h-94v-528h94v-70q-45 -16 -66 -33t-21 -41q0 -20 13.5 -30.5t35.5 -10.5q21 0 38 8v-54q-28 -12 -59 -12q-42 0 -70 22t-28 60q0 58 52 91h-177v70z" />
    <glyph glyph-name="J" unicode="J" horiz-adv-x="512" 
d="M74 39.5q-55 51.5 -59 149.5l87 25q-2 -72 33 -110.5t89 -38.5q49 0 82.5 33t33.5 115v455h94v-456q0 -108 -55.5 -166t-154.5 -58q-95 0 -150 51.5z" />
    <glyph glyph-name="uni004A0301" horiz-adv-x="512" 
d="M74 39.5q-55 51.5 -59 149.5l87 25q-2 -72 33 -110.5t89 -38.5q49 0 82.5 33t33.5 115v455h94v-456q0 -108 -55.5 -166t-154.5 -58q-95 0 -150 51.5zM466.5 857.5q10.5 5.5 20.5 5.5q16 0 26.5 -9.5t10.5 -25.5q0 -13 -8.5 -24t-31.5 -25l-57 -35h-76l91 94
q14 14 24.5 19.5z" />
    <glyph glyph-name="K" unicode="K" horiz-adv-x="631" 
d="M78 668h94v-336l301 336h117l-255 -279l284 -389h-115l-232 320l-100 -110v-210h-94v668z" />
    <glyph glyph-name="uni0136" unicode="&#x136;" horiz-adv-x="631" 
d="M78 668h94v-336l301 336h117l-255 -279l284 -389h-115l-232 320l-100 -110v-210h-94v668zM289 -202q29 14 29 55q0 21 -12 38.5t-38 26.5l60 26q28 -15 42 -38t14 -49q0 -47 -33.5 -77t-86.5 -30l-40 34q36 0 65 14z" />
    <glyph glyph-name="L" unicode="L" horiz-adv-x="541" 
d="M78 668h94v-587h359v-81h-453v668z" />
    <glyph glyph-name="Lcaron" unicode="&#x13d;" horiz-adv-x="541" 
d="M78 668h94v-587h359v-81h-453v668zM296.5 671.5q9.5 9.5 25.5 9.5t26.5 -9.5t10.5 -25.5q0 -13 -11 -41l-40 -107h-49l26 154q2 10 11.5 19.5z" />
    <glyph glyph-name="uni013B" unicode="&#x13b;" horiz-adv-x="541" 
d="M78 668h94v-587h359v-81h-453v668zM245 -202q29 14 29 55q0 21 -12 38.5t-38 26.5l60 26q28 -15 42 -38t14 -49q0 -47 -33.5 -77t-86.5 -30l-40 34q36 0 65 14z" />
    <glyph glyph-name="Lslash" unicode="&#x141;" horiz-adv-x="571" 
d="M108 246l-99 -58v80l99 58v342h94v-286l186 109v-80l-186 -109v-221h359v-81h-453v246z" />
    <glyph glyph-name="M" unicode="M" horiz-adv-x="824" 
d="M78 668h156l178 -546l178 546h156v-668h-94v570l-193 -570h-93l-194 570v-570h-94v668z" />
    <glyph glyph-name="N" unicode="N" horiz-adv-x="693" 
d="M78 668h139l304 -568v568h94v-668h-138l-305 571v-571h-94v668z" />
    <glyph glyph-name="Nacute" unicode="&#x143;" horiz-adv-x="693" 
d="M78 668h139l304 -568v568h94v-668h-138l-305 571v-571h-94v668zM426.5 857.5q10.5 5.5 20.5 5.5q16 0 26.5 -9.5t10.5 -25.5q0 -13 -8.5 -24t-31.5 -25l-57 -35h-76l91 94q14 14 24.5 19.5z" />
    <glyph glyph-name="Ncaron" unicode="&#x147;" horiz-adv-x="693" 
d="M78 668h139l304 -568v568h94v-668h-138l-305 571v-571h-94v668zM297 760l-112 101h94l67 -61l68 61h94l-112 -101q-20 -19 -49 -19q-30 0 -50 19z" />
    <glyph glyph-name="uni0145" unicode="&#x145;" horiz-adv-x="693" 
d="M78 668h139l304 -568v568h94v-668h-138l-305 571v-571h-94v668zM320 -202q29 14 29 55q0 21 -12 38.5t-38 26.5l60 26q28 -15 42 -38t14 -49q0 -47 -33.5 -77t-86.5 -30l-40 34q36 0 65 14z" />
    <glyph glyph-name="Ntilde" unicode="&#xd1;" horiz-adv-x="693" 
d="M78 668h139l304 -568v568h94v-668h-138l-305 571v-571h-94v668zM378 753q-16 6 -37 18q-18 10 -29 14.5t-23 4.5q-18 0 -29 -10.5t-13 -30.5h-65q9 52 37 78t69 26q20 0 35.5 -6t35.5 -18q32 -19 53 -19q14 0 23 5.5t16 17.5q11 19 29 19q12 0 21.5 -9t9.5 -22
q0 -12 -12 -30t-34 -31t-51 -13q-20 0 -36 6z" />
    <glyph glyph-name="O" unicode="O" horiz-adv-x="714" 
d="M192 32q-71 44 -109.5 122.5t-38.5 179.5t38.5 179.5t109.5 122.5t165 44t165 -44t109.5 -122.5t38.5 -179.5t-38.5 -179.5t-109.5 -122.5t-165 -44t-165 44zM467.5 98q49.5 31 78 91.5t28.5 144.5t-28.5 144.5t-78 91.5t-110.5 31t-110.5 -31t-78 -91.5t-28.5 -144.5
t28.5 -144.5t78 -91.5t110.5 -31t110.5 31z" />
    <glyph glyph-name="Oacute" unicode="&#xd3;" horiz-adv-x="714" 
d="M192 32q-71 44 -109.5 122.5t-38.5 179.5t38.5 179.5t109.5 122.5t165 44t165 -44t109.5 -122.5t38.5 -179.5t-38.5 -179.5t-109.5 -122.5t-165 -44t-165 44zM467.5 98q49.5 31 78 91.5t28.5 144.5t-28.5 144.5t-78 91.5t-110.5 31t-110.5 -31t-78 -91.5t-28.5 -144.5
t28.5 -144.5t78 -91.5t110.5 -31t110.5 31zM437.5 857.5q10.5 5.5 20.5 5.5q16 0 26.5 -9.5t10.5 -25.5q0 -13 -8.5 -24t-31.5 -25l-57 -35h-76l91 94q14 14 24.5 19.5z" />
    <glyph glyph-name="Ocircumflex" unicode="&#xd4;" horiz-adv-x="714" 
d="M192 32q-71 44 -109.5 122.5t-38.5 179.5t38.5 179.5t109.5 122.5t165 44t165 -44t109.5 -122.5t38.5 -179.5t-38.5 -179.5t-109.5 -122.5t-165 -44t-165 44zM467.5 98q49.5 31 78 91.5t28.5 144.5t-28.5 144.5t-78 91.5t-110.5 31t-110.5 -31t-78 -91.5t-28.5 -144.5
t28.5 -144.5t78 -91.5t110.5 -31t110.5 31zM358 867q29 0 49 -19l112 -101h-94l-68 61l-67 -61h-94l112 101q20 19 50 19z" />
    <glyph glyph-name="Odieresis" unicode="&#xd6;" horiz-adv-x="714" 
d="M192 32q-71 44 -109.5 122.5t-38.5 179.5t38.5 179.5t109.5 122.5t165 44t165 -44t109.5 -122.5t38.5 -179.5t-38.5 -179.5t-109.5 -122.5t-165 -44t-165 44zM467.5 98q49.5 31 78 91.5t28.5 144.5t-28.5 144.5t-78 91.5t-110.5 31t-110.5 -31t-78 -91.5t-28.5 -144.5
t28.5 -144.5t78 -91.5t110.5 -31t110.5 31zM410 756q-16 16 -16 38q0 23 16 38.5t38 15.5q23 0 38.5 -15.5t15.5 -38.5q0 -22 -15.5 -38t-38.5 -16q-22 0 -38 16zM230 756q-16 16 -16 38q0 23 16 38.5t38 15.5q23 0 38.5 -15.5t15.5 -38.5q0 -22 -15.5 -38t-38.5 -16
q-22 0 -38 16z" />
    <glyph glyph-name="Ograve" unicode="&#xd2;" horiz-adv-x="714" 
d="M192 32q-71 44 -109.5 122.5t-38.5 179.5t38.5 179.5t109.5 122.5t165 44t165 -44t109.5 -122.5t38.5 -179.5t-38.5 -179.5t-109.5 -122.5t-165 -44t-165 44zM467.5 98q49.5 31 78 91.5t28.5 144.5t-28.5 144.5t-78 91.5t-110.5 31t-110.5 -31t-78 -91.5t-28.5 -144.5
t28.5 -144.5t78 -91.5t110.5 -31t110.5 31zM229.5 804q-8.5 11 -8.5 24q0 16 10.5 25.5t26.5 9.5q10 0 20.5 -5.5t24.5 -19.5l91 -94h-76l-57 35q-23 14 -31.5 25z" />
    <glyph glyph-name="Ohungarumlaut" unicode="&#x150;" horiz-adv-x="714" 
d="M192 32q-71 44 -109.5 122.5t-38.5 179.5t38.5 179.5t109.5 122.5t165 44t165 -44t109.5 -122.5t38.5 -179.5t-38.5 -179.5t-109.5 -122.5t-165 -44t-165 44zM467.5 98q49.5 31 78 91.5t28.5 144.5t-28.5 144.5t-78 91.5t-110.5 31t-110.5 -31t-78 -91.5t-28.5 -144.5
t28.5 -144.5t78 -91.5t110.5 -31t110.5 31zM356 871q10 7 22 7q15 0 24.5 -9.5t9.5 -24.5q0 -12 -9.5 -24.5t-31.5 -31.5l-54 -45h-65l81 104q13 17 23 24zM504 871q10 7 22 7q15 0 24.5 -9.5t9.5 -24.5q0 -12 -9.5 -24.5t-31.5 -31.5l-54 -45h-65l81 104q13 17 23 24z" />
    <glyph glyph-name="Oslash" unicode="&#xd8;" horiz-adv-x="714" 
d="M155 59l-55 -65l-38 33l58 68q-37 46 -56.5 107t-19.5 132q0 101 38.5 179.5t109.5 122.5t165 44q120 0 202 -71l54 64l39 -32l-58 -68q37 -46 56.5 -107t19.5 -132q0 -101 -38.5 -179.5t-109.5 -122.5t-165 -44q-120 0 -202 71zM467.5 98q49.5 31 78 91.5t28.5 144.5
q0 100 -41 168l-321 -376q59 -59 145 -59q61 0 110.5 31zM181 166l321 376q-59 59 -145 59q-61 0 -110.5 -31t-78 -91.5t-28.5 -144.5q0 -100 41 -168z" />
    <glyph glyph-name="Otilde" unicode="&#xd5;" horiz-adv-x="714" 
d="M192 32q-71 44 -109.5 122.5t-38.5 179.5t38.5 179.5t109.5 122.5t165 44t165 -44t109.5 -122.5t38.5 -179.5t-38.5 -179.5t-109.5 -122.5t-165 -44t-165 44zM467.5 98q49.5 31 78 91.5t28.5 144.5t-28.5 144.5t-78 91.5t-110.5 31t-110.5 -31t-78 -91.5t-28.5 -144.5
t28.5 -144.5t78 -91.5t110.5 -31t110.5 31zM389 753q-16 6 -37 18q-18 10 -29 14.5t-23 4.5q-18 0 -29 -10.5t-13 -30.5h-65q9 52 37 78t69 26q20 0 35.5 -6t35.5 -18q32 -19 53 -19q14 0 23 5.5t16 17.5q11 19 29 19q12 0 21.5 -9t9.5 -22q0 -12 -12 -30t-34 -31t-51 -13
q-20 0 -36 6z" />
    <glyph glyph-name="OE" unicode="&#x152;" horiz-adv-x="1006" 
d="M184.5 32.5q-67.5 44.5 -104 123t-36.5 179.5q0 100 36.5 178.5t104 122.5t157.5 44q63 0 115 -24t88 -69v81h419v-81h-329v-203h239v-81h-239v-222h333v-81h-423v82q-36 -45 -88 -69.5t-115 -24.5q-90 0 -157.5 44.5zM446 97.5q46 30.5 72.5 91t26.5 146.5t-26.5 146
t-72.5 90t-104 30t-103.5 -30t-72 -90t-26.5 -146t26.5 -146.5t72 -91t103.5 -30.5t104 30.5z" />
    <glyph glyph-name="P" unicode="P" horiz-adv-x="592" 
d="M78 668h243q112 0 178 -50t66 -151t-66 -151t-178 -50h-149v-266h-94v668zM469 467q0 120 -153 120h-144v-240h144q153 0 153 120z" />
    <glyph glyph-name="Thorn" unicode="&#xde;" horiz-adv-x="592" 
d="M78 668h94v-127h149q112 0 178 -50t66 -151t-66 -151t-178 -50h-149v-139h-94v668zM469 340q0 120 -153 120h-144v-240h144q153 0 153 120z" />
    <glyph glyph-name="Q" unicode="Q" horiz-adv-x="724" 
d="M192 32q-71 44 -109.5 122.5t-38.5 179.5t38.5 179.5t109.5 122.5t165 44t165 -44t109.5 -122.5t38.5 -179.5q0 -111 -47 -196l123 -116l-62 -66l-117 110q-41 -37 -94 -57.5t-116 -20.5q-94 0 -165 44zM436.5 82q37.5 15 65.5 44l-178 168l62 66l166 -156q22 58 22 130
q0 84 -28.5 144.5t-78 91.5t-110.5 31t-110.5 -31t-78 -91.5t-28.5 -144.5t28.5 -144.5t78 -91.5t110.5 -31q42 0 79.5 15z" />
    <glyph glyph-name="R" unicode="R" horiz-adv-x="614" 
d="M78 668h247q112 0 178 -49t66 -147q0 -83 -49.5 -130t-136.5 -59l205 -283h-114l-197 277h-105v-277h-94v668zM434 385q39 27 39 87t-39 87.5t-107 27.5h-155v-229h155q68 0 107 27z" />
    <glyph glyph-name="Racute" unicode="&#x154;" horiz-adv-x="614" 
d="M78 668h247q112 0 178 -49t66 -147q0 -83 -49.5 -130t-136.5 -59l205 -283h-114l-197 277h-105v-277h-94v668zM434 385q39 27 39 87t-39 87.5t-107 27.5h-155v-229h155q68 0 107 27zM375.5 857.5q10.5 5.5 20.5 5.5q16 0 26.5 -9.5t10.5 -25.5q0 -13 -8.5 -24t-31.5 -25
l-57 -35h-76l91 94q14 14 24.5 19.5z" />
    <glyph glyph-name="Rcaron" unicode="&#x158;" horiz-adv-x="614" 
d="M78 668h247q112 0 178 -49t66 -147q0 -83 -49.5 -130t-136.5 -59l205 -283h-114l-197 277h-105v-277h-94v668zM434 385q39 27 39 87t-39 87.5t-107 27.5h-155v-229h155q68 0 107 27zM246 760l-112 101h94l67 -61l68 61h94l-112 -101q-20 -19 -49 -19q-30 0 -50 19z" />
    <glyph glyph-name="S" unicode="S" horiz-adv-x="592" 
d="M134.5 28.5q-71.5 40.5 -96.5 117.5l86 31q16 -53 65.5 -81.5t108.5 -28.5q69 0 115.5 31t46.5 88q0 42 -29.5 67t-107.5 43l-90 21q-86 20 -132.5 62.5t-46.5 114.5q0 53 32.5 95.5t88.5 66.5t124 24q76 0 139 -31.5t92 -93.5l-86 -31q-19 37 -60 57t-89 20
q-61 0 -104 -27t-43 -77q0 -71 104 -95l94 -22q104 -25 156 -67.5t52 -125.5q0 -61 -35.5 -106.5t-94.5 -69t-130 -23.5q-88 0 -159.5 40.5z" />
    <glyph glyph-name="Sacute" unicode="&#x15a;" horiz-adv-x="592" 
d="M134.5 28.5q-71.5 40.5 -96.5 117.5l86 31q16 -53 65.5 -81.5t108.5 -28.5q69 0 115.5 31t46.5 88q0 42 -29.5 67t-107.5 43l-90 21q-86 20 -132.5 62.5t-46.5 114.5q0 53 32.5 95.5t88.5 66.5t124 24q76 0 139 -31.5t92 -93.5l-86 -31q-19 37 -60 57t-89 20
q-61 0 -104 -27t-43 -77q0 -71 104 -95l94 -22q104 -25 156 -67.5t52 -125.5q0 -61 -35.5 -106.5t-94.5 -69t-130 -23.5q-88 0 -159.5 40.5zM375.5 857.5q10.5 5.5 20.5 5.5q16 0 26.5 -9.5t10.5 -25.5q0 -13 -8.5 -24t-31.5 -25l-57 -35h-76l91 94q14 14 24.5 19.5z" />
    <glyph glyph-name="Scaron" unicode="&#x160;" horiz-adv-x="592" 
d="M134.5 28.5q-71.5 40.5 -96.5 117.5l86 31q16 -53 65.5 -81.5t108.5 -28.5q69 0 115.5 31t46.5 88q0 42 -29.5 67t-107.5 43l-90 21q-86 20 -132.5 62.5t-46.5 114.5q0 53 32.5 95.5t88.5 66.5t124 24q76 0 139 -31.5t92 -93.5l-86 -31q-19 37 -60 57t-89 20
q-61 0 -104 -27t-43 -77q0 -71 104 -95l94 -22q104 -25 156 -67.5t52 -125.5q0 -61 -35.5 -106.5t-94.5 -69t-130 -23.5q-88 0 -159.5 40.5zM246 760l-112 101h94l67 -61l68 61h94l-112 -101q-20 -19 -49 -19q-30 0 -50 19z" />
    <glyph glyph-name="Scedilla" unicode="&#x15e;" horiz-adv-x="592" 
d="M203 -163l14 35q32 -14 58 -14q28 0 40.5 10t12.5 24q0 13 -9.5 21t-28.5 8q-17 0 -33 -4q-3 -1 -9 -1q-8 0 -13 4.5t-5 11.5q0 3 4 11l29 46q-79 7 -140.5 47t-84.5 110l86 31q16 -53 65.5 -81.5t108.5 -28.5q69 0 115.5 31t46.5 88q0 42 -29.5 67t-107.5 43l-90 21
q-86 20 -132.5 62.5t-46.5 114.5q0 53 32.5 95.5t88.5 66.5t124 24q76 0 139 -31.5t92 -93.5l-86 -31q-19 37 -60 57t-89 20q-61 0 -104 -27t-43 -77q0 -71 104 -95l94 -22q104 -25 156 -67.5t52 -125.5q0 -59 -33 -103t-88.5 -68.5t-123.5 -27.5l-20 -33q22 4 30 4
q33 0 51 -18.5t18 -44.5q0 -31 -25.5 -55t-71.5 -24q-39 0 -88 20z" />
    <glyph glyph-name="uni0218" unicode="&#x218;" horiz-adv-x="592" 
d="M134.5 28.5q-71.5 40.5 -96.5 117.5l86 31q16 -53 65.5 -81.5t108.5 -28.5q69 0 115.5 31t46.5 88q0 42 -29.5 67t-107.5 43l-90 21q-86 20 -132.5 62.5t-46.5 114.5q0 53 32.5 95.5t88.5 66.5t124 24q76 0 139 -31.5t92 -93.5l-86 -31q-19 37 -60 57t-89 20
q-61 0 -104 -27t-43 -77q0 -71 104 -95l94 -22q104 -25 156 -67.5t52 -125.5q0 -61 -35.5 -106.5t-94.5 -69t-130 -23.5q-88 0 -159.5 40.5zM269 -202q29 14 29 55q0 21 -12 38.5t-38 26.5l60 26q28 -15 42 -38t14 -49q0 -47 -33.5 -77t-86.5 -30l-40 34q36 0 65 14z" />
    <glyph glyph-name="uni1E9E" unicode="&#x1e9e;" horiz-adv-x="656" 
d="M319.5 20.5q-43.5 32.5 -60.5 82.5l74 27q21 -67 99 -67q43 0 72.5 31t29.5 84q0 55 -30.5 84.5t-74.5 29.5q-22 0 -45 -9l-38 65l171 239q-95 19 -164 19q-94 0 -138.5 -39t-44.5 -132v-435h-94v447q0 122 67 177.5t196 55.5q112 0 255 -35v-75l-153 -213
q59 0 100.5 -24.5t62 -66t20.5 -90.5q0 -58 -26 -100.5t-69 -65t-92 -22.5q-74 0 -117.5 32.5z" />
    <glyph glyph-name="T" unicode="T" horiz-adv-x="558" 
d="M232 587h-222v81h538v-81h-222v-587h-94v587z" />
    <glyph glyph-name="Tcaron" unicode="&#x164;" horiz-adv-x="558" 
d="M232 587h-222v81h538v-81h-222v-587h-94v587zM229 760l-112 101h94l67 -61l68 61h94l-112 -101q-20 -19 -49 -19q-30 0 -50 19z" />
    <glyph glyph-name="uni0162" unicode="&#x162;" horiz-adv-x="558" 
d="M232 587h-222v81h538v-81h-222v-587h-23l-28 -45q22 4 30 4q33 0 51 -18.5t18 -44.5q0 -31 -25.5 -55t-71.5 -24q-39 0 -88 20l14 35q32 -14 58 -14q28 0 40.5 10t12.5 24q0 13 -9.5 21t-28.5 8q-17 0 -33 -4q-3 -1 -9 -1q-8 0 -13 4.5t-5 11.5q0 3 4 11l35 57h-23v587z
" />
    <glyph glyph-name="uni021A" unicode="&#x21a;" horiz-adv-x="558" 
d="M232 587h-222v81h538v-81h-222v-587h-94v587zM252 -202q29 14 29 55q0 21 -12 38.5t-38 26.5l60 26q28 -15 42 -38t14 -49q0 -47 -33.5 -77t-86.5 -30l-40 34q36 0 65 14z" />
    <glyph glyph-name="U" unicode="U" horiz-adv-x="690" 
d="M139 59q-63 71 -63 220v389h94v-396q0 -102 41 -152.5t134 -50.5t134 50.5t41 152.5v396h94v-389q0 -149 -63 -220t-206 -71t-206 71z" />
    <glyph glyph-name="Uacute" unicode="&#xda;" horiz-adv-x="690" 
d="M139 59q-63 71 -63 220v389h94v-396q0 -102 41 -152.5t134 -50.5t134 50.5t41 152.5v396h94v-389q0 -149 -63 -220t-206 -71t-206 71zM424.5 857.5q10.5 5.5 20.5 5.5q16 0 26.5 -9.5t10.5 -25.5q0 -13 -8.5 -24t-31.5 -25l-57 -35h-76l91 94q14 14 24.5 19.5z" />
    <glyph glyph-name="Ucircumflex" unicode="&#xdb;" horiz-adv-x="690" 
d="M139 59q-63 71 -63 220v389h94v-396q0 -102 41 -152.5t134 -50.5t134 50.5t41 152.5v396h94v-389q0 -149 -63 -220t-206 -71t-206 71zM345 867q29 0 49 -19l112 -101h-94l-68 61l-67 -61h-94l112 101q20 19 50 19z" />
    <glyph glyph-name="Udieresis" unicode="&#xdc;" horiz-adv-x="690" 
d="M139 59q-63 71 -63 220v389h94v-396q0 -102 41 -152.5t134 -50.5t134 50.5t41 152.5v396h94v-389q0 -149 -63 -220t-206 -71t-206 71zM397 756q-16 16 -16 38q0 23 16 38.5t38 15.5q23 0 38.5 -15.5t15.5 -38.5q0 -22 -15.5 -38t-38.5 -16q-22 0 -38 16zM217 756
q-16 16 -16 38q0 23 16 38.5t38 15.5q23 0 38.5 -15.5t15.5 -38.5q0 -22 -15.5 -38t-38.5 -16q-22 0 -38 16z" />
    <glyph glyph-name="Ugrave" unicode="&#xd9;" horiz-adv-x="690" 
d="M139 59q-63 71 -63 220v389h94v-396q0 -102 41 -152.5t134 -50.5t134 50.5t41 152.5v396h94v-389q0 -149 -63 -220t-206 -71t-206 71zM216.5 804q-8.5 11 -8.5 24q0 16 10.5 25.5t26.5 9.5q10 0 20.5 -5.5t24.5 -19.5l91 -94h-76l-57 35q-23 14 -31.5 25z" />
    <glyph glyph-name="Uhungarumlaut" unicode="&#x170;" horiz-adv-x="690" 
d="M139 59q-63 71 -63 220v389h94v-396q0 -102 41 -152.5t134 -50.5t134 50.5t41 152.5v396h94v-389q0 -149 -63 -220t-206 -71t-206 71zM343 871q10 7 22 7q15 0 24.5 -9.5t9.5 -24.5q0 -12 -9.5 -24.5t-31.5 -31.5l-54 -45h-65l81 104q13 17 23 24zM491 871q10 7 22 7
q15 0 24.5 -9.5t9.5 -24.5q0 -12 -9.5 -24.5t-31.5 -31.5l-54 -45h-65l81 104q13 17 23 24z" />
    <glyph glyph-name="Umacron" unicode="&#x16a;" horiz-adv-x="690" 
d="M139 59q-63 71 -63 220v389h94v-396q0 -102 41 -152.5t134 -50.5t134 50.5t41 152.5v396h94v-389q0 -149 -63 -220t-206 -71t-206 71zM207 829h276v-67h-276v67z" />
    <glyph glyph-name="Uogonek" unicode="&#x172;" horiz-adv-x="690" 
d="M398.5 -149q-25.5 24 -25.5 58q0 46 31 82q-33 -3 -64 -3q-126 0 -195 65t-69 226v389h94v-396q0 -102 41 -152.5t134 -50.5t134 50.5t41 152.5v396h94v-389q0 -98 -26.5 -161.5t-82.5 -95.5q-27 -15 -44.5 -40t-17.5 -53q0 -22 13.5 -33t35.5 -11q21 0 38 8v-54
q-34 -12 -63 -12q-43 0 -68.5 24z" />
    <glyph glyph-name="Uring" unicode="&#x16e;" horiz-adv-x="690" 
d="M139 59q-63 71 -63 220v389h94v-396q0 -102 41 -152.5t134 -50.5t134 50.5t41 152.5v396h94v-389q0 -149 -63 -220t-206 -71t-206 71zM268 702.5q-32 32.5 -32 76.5t32 76.5t77 32.5t77 -32.5t32 -76.5t-32 -76.5t-77 -32.5t-77 32.5zM382 743q15 15 15 36t-15 36t-37 15
t-37 -15t-15 -36t15 -36t37 -15t37 15z" />
    <glyph glyph-name="V" unicode="V" horiz-adv-x="593" 
d="M12 668h103l181 -558l182 558h103l-230 -668h-110z" />
    <glyph glyph-name="W" unicode="W" horiz-adv-x="856" 
d="M18 668h103l130 -552l122 552h110l122 -552l130 552h103l-167 -668h-114l-129 552l-129 -552h-113z" />
    <glyph glyph-name="Wacute" unicode="&#x1e82;" horiz-adv-x="856" 
d="M18 668h103l130 -552l122 552h110l122 -552l130 552h103l-167 -668h-114l-129 552l-129 -552h-113zM507.5 857.5q10.5 5.5 20.5 5.5q16 0 26.5 -9.5t10.5 -25.5q0 -13 -8.5 -24t-31.5 -25l-57 -35h-76l91 94q14 14 24.5 19.5z" />
    <glyph glyph-name="Wcircumflex" unicode="&#x174;" horiz-adv-x="856" 
d="M18 668h103l130 -552l122 552h110l122 -552l130 552h103l-167 -668h-114l-129 552l-129 -552h-113zM428 867q29 0 49 -19l112 -101h-94l-68 61l-67 -61h-94l112 101q20 19 50 19z" />
    <glyph glyph-name="Wdieresis" unicode="&#x1e84;" horiz-adv-x="856" 
d="M18 668h103l130 -552l122 552h110l122 -552l130 552h103l-167 -668h-114l-129 552l-129 -552h-113zM480 756q-16 16 -16 38q0 23 16 38.5t38 15.5q23 0 38.5 -15.5t15.5 -38.5q0 -22 -15.5 -38t-38.5 -16q-22 0 -38 16zM300 756q-16 16 -16 38q0 23 16 38.5t38 15.5
q23 0 38.5 -15.5t15.5 -38.5q0 -22 -15.5 -38t-38.5 -16q-22 0 -38 16z" />
    <glyph glyph-name="Wgrave" unicode="&#x1e80;" horiz-adv-x="856" 
d="M18 668h103l130 -552l122 552h110l122 -552l130 552h103l-167 -668h-114l-129 552l-129 -552h-113zM299.5 804q-8.5 11 -8.5 24q0 16 10.5 25.5t26.5 9.5q10 0 20.5 -5.5t24.5 -19.5l91 -94h-76l-57 35q-23 14 -31.5 25z" />
    <glyph glyph-name="X" unicode="X" horiz-adv-x="623" 
d="M255 344l-231 324h112l175 -245l175 245h113l-231 -324l245 -344h-113l-189 265l-188 -265h-113z" />
    <glyph glyph-name="Y" unicode="Y" horiz-adv-x="575" 
d="M241 259l-241 409h103l185 -323l184 323h103l-240 -409v-259h-94v259z" />
    <glyph glyph-name="Yacute" unicode="&#xdd;" horiz-adv-x="575" 
d="M241 259l-241 409h103l185 -323l184 323h103l-240 -409v-259h-94v259zM367.5 857.5q10.5 5.5 20.5 5.5q16 0 26.5 -9.5t10.5 -25.5q0 -13 -8.5 -24t-31.5 -25l-57 -35h-76l91 94q14 14 24.5 19.5z" />
    <glyph glyph-name="Ycircumflex" unicode="&#x176;" horiz-adv-x="575" 
d="M241 259l-241 409h103l185 -323l184 323h103l-240 -409v-259h-94v259zM288 867q29 0 49 -19l112 -101h-94l-68 61l-67 -61h-94l112 101q20 19 50 19z" />
    <glyph glyph-name="Ydieresis" unicode="&#x178;" horiz-adv-x="575" 
d="M241 259l-241 409h103l185 -323l184 323h103l-240 -409v-259h-94v259zM340 756q-16 16 -16 38q0 23 16 38.5t38 15.5q23 0 38.5 -15.5t15.5 -38.5q0 -22 -15.5 -38t-38.5 -16q-22 0 -38 16zM160 756q-16 16 -16 38q0 23 16 38.5t38 15.5q23 0 38.5 -15.5t15.5 -38.5
q0 -22 -15.5 -38t-38.5 -16q-22 0 -38 16z" />
    <glyph glyph-name="Ygrave" unicode="&#x1ef2;" horiz-adv-x="575" 
d="M241 259l-241 409h103l185 -323l184 323h103l-240 -409v-259h-94v259zM159.5 804q-8.5 11 -8.5 24q0 16 10.5 25.5t26.5 9.5q10 0 20.5 -5.5t24.5 -19.5l91 -94h-76l-57 35q-23 14 -31.5 25z" />
    <glyph glyph-name="Z" unicode="Z" horiz-adv-x="607" 
d="M44 81l394 506h-379v81h489v-81l-392 -506h407v-81h-519v81z" />
    <glyph glyph-name="Zacute" unicode="&#x179;" horiz-adv-x="607" 
d="M44 81l394 506h-379v81h489v-81l-392 -506h407v-81h-519v81zM383.5 857.5q10.5 5.5 20.5 5.5q16 0 26.5 -9.5t10.5 -25.5q0 -13 -8.5 -24t-31.5 -25l-57 -35h-76l91 94q14 14 24.5 19.5z" />
    <glyph glyph-name="Zcaron" unicode="&#x17d;" horiz-adv-x="607" 
d="M44 81l394 506h-379v81h489v-81l-392 -506h407v-81h-519v81zM254 760l-112 101h94l67 -61l68 61h94l-112 -101q-20 -19 -49 -19q-30 0 -50 19z" />
    <glyph glyph-name="Zdotaccent" unicode="&#x17b;" horiz-adv-x="607" 
d="M44 81l394 506h-379v81h489v-81l-392 -506h407v-81h-519v81zM266 756q-16 16 -16 38q0 23 16 38.5t38 15.5q23 0 38.5 -15.5t15.5 -38.5q0 -22 -15.5 -38t-38.5 -16q-22 0 -38 16z" />
    <glyph glyph-name="a" unicode="a" horiz-adv-x="525" 
d="M80.5 26q-49.5 38 -49.5 103q0 84 84.5 124.5t256.5 56.5v9q0 55 -28.5 86.5t-85.5 31.5q-45 0 -74.5 -20.5t-37.5 -56.5l-81 24q20 56 71 88t119 32q102 0 149.5 -49t47.5 -152v-116q0 -93 18 -187h-77l-20 68q-45 -80 -169 -80q-74 0 -123.5 38zM330.5 90
q41.5 35 41.5 114v39q-124 -10 -186 -36t-62 -76q0 -35 26.5 -55.5t72.5 -20.5q66 0 107.5 35z" />
    <glyph glyph-name="aacute" unicode="&#xe1;" horiz-adv-x="525" 
d="M80.5 26q-49.5 38 -49.5 103q0 84 84.5 124.5t256.5 56.5v9q0 55 -28.5 86.5t-85.5 31.5q-45 0 -74.5 -20.5t-37.5 -56.5l-81 24q20 56 71 88t119 32q102 0 149.5 -49t47.5 -152v-116q0 -93 18 -187h-77l-20 68q-45 -80 -169 -80q-74 0 -123.5 38zM330.5 90
q41.5 35 41.5 114v39q-124 -10 -186 -36t-62 -76q0 -35 26.5 -55.5t72.5 -20.5q66 0 107.5 35zM331 699q10 7 22 7q16 0 26.5 -9.5t10.5 -26.5q0 -12 -9 -23.5t-31 -30.5l-54 -45h-69l81 104q13 17 23 24z" />
    <glyph glyph-name="abreve" unicode="&#x103;" horiz-adv-x="525" 
d="M80.5 26q-49.5 38 -49.5 103q0 84 84.5 124.5t256.5 56.5v9q0 55 -28.5 86.5t-85.5 31.5q-45 0 -74.5 -20.5t-37.5 -56.5l-81 24q20 56 71 88t119 32q102 0 149.5 -49t47.5 -152v-116q0 -93 18 -187h-77l-20 68q-45 -80 -169 -80q-74 0 -123.5 38zM330.5 90
q41.5 35 41.5 114v39q-124 -10 -186 -36t-62 -76q0 -35 26.5 -55.5t72.5 -20.5q66 0 107.5 35zM163.5 603q-40.5 34 -51.5 86h68q8 -23 29.5 -38t48.5 -15q26 0 47.5 15t30.5 38h68q-11 -52 -52 -86t-94 -34q-54 0 -94.5 34z" />
    <glyph glyph-name="acircumflex" unicode="&#xe2;" horiz-adv-x="525" 
d="M80.5 26q-49.5 38 -49.5 103q0 84 84.5 124.5t256.5 56.5v9q0 55 -28.5 86.5t-85.5 31.5q-45 0 -74.5 -20.5t-37.5 -56.5l-81 24q20 56 71 88t119 32q102 0 149.5 -49t47.5 -152v-116q0 -93 18 -187h-77l-20 68q-45 -80 -169 -80q-74 0 -123.5 38zM330.5 90
q41.5 35 41.5 114v39q-124 -10 -186 -36t-62 -76q0 -35 26.5 -55.5t72.5 -20.5q66 0 107.5 35zM258 695q29 0 49 -19l112 -101h-94l-68 61l-67 -61h-94l112 101q20 19 50 19z" />
    <glyph glyph-name="adieresis" unicode="&#xe4;" horiz-adv-x="525" 
d="M80.5 26q-49.5 38 -49.5 103q0 84 84.5 124.5t256.5 56.5v9q0 55 -28.5 86.5t-85.5 31.5q-45 0 -74.5 -20.5t-37.5 -56.5l-81 24q20 56 71 88t119 32q102 0 149.5 -49t47.5 -152v-116q0 -93 18 -187h-77l-20 68q-45 -80 -169 -80q-74 0 -123.5 38zM330.5 90
q41.5 35 41.5 114v39q-124 -10 -186 -36t-62 -76q0 -35 26.5 -55.5t72.5 -20.5q66 0 107.5 35zM310 606q-16 16 -16 38q0 23 16 38.5t38 15.5q23 0 38.5 -15.5t15.5 -38.5q0 -22 -15.5 -38t-38.5 -16q-22 0 -38 16zM130 606q-16 16 -16 38q0 23 16 38.5t38 15.5
q23 0 38.5 -15.5t15.5 -38.5q0 -22 -15.5 -38t-38.5 -16q-22 0 -38 16z" />
    <glyph glyph-name="agrave" unicode="&#xe0;" horiz-adv-x="525" 
d="M80.5 26q-49.5 38 -49.5 103q0 84 84.5 124.5t256.5 56.5v9q0 55 -28.5 86.5t-85.5 31.5q-45 0 -74.5 -20.5t-37.5 -56.5l-81 24q20 56 71 88t119 32q102 0 149.5 -49t47.5 -152v-116q0 -93 18 -187h-77l-20 68q-45 -80 -169 -80q-74 0 -123.5 38zM330.5 90
q41.5 35 41.5 114v39q-124 -10 -186 -36t-62 -76q0 -35 26.5 -55.5t72.5 -20.5q66 0 107.5 35zM135 646.5q-9 11.5 -9 23.5q0 17 10.5 26.5t26.5 9.5q12 0 22 -7t23 -24l81 -104h-69l-54 45q-22 19 -31 30.5z" />
    <glyph glyph-name="amacron" unicode="&#x101;" horiz-adv-x="525" 
d="M80.5 26q-49.5 38 -49.5 103q0 84 84.5 124.5t256.5 56.5v9q0 55 -28.5 86.5t-85.5 31.5q-45 0 -74.5 -20.5t-37.5 -56.5l-81 24q20 56 71 88t119 32q102 0 149.5 -49t47.5 -152v-116q0 -93 18 -187h-77l-20 68q-45 -80 -169 -80q-74 0 -123.5 38zM330.5 90
q41.5 35 41.5 114v39q-124 -10 -186 -36t-62 -76q0 -35 26.5 -55.5t72.5 -20.5q66 0 107.5 35zM120 668h276v-67h-276v67z" />
    <glyph glyph-name="aogonek" unicode="&#x105;" horiz-adv-x="525" 
d="M338.5 -149q-25.5 24 -25.5 58q0 63 78 99l-18 60q-45 -80 -169 -80q-74 0 -123.5 38t-49.5 103q0 84 84.5 124.5t256.5 56.5v9q0 55 -28.5 86.5t-85.5 31.5q-45 0 -74.5 -20.5t-37.5 -56.5l-81 24q20 56 71 88t119 32q102 0 149.5 -49t47.5 -152v-116q0 -93 18 -187
q-49 -17 -68 -34.5t-19 -39.5q0 -20 13.5 -30.5t35.5 -10.5q21 0 38 8v-54q-34 -12 -63 -12q-43 0 -68.5 24zM330.5 90q41.5 35 41.5 114v39q-124 -10 -186 -36t-62 -76q0 -35 26.5 -55.5t72.5 -20.5q66 0 107.5 35z" />
    <glyph glyph-name="aring" unicode="&#xe5;" horiz-adv-x="525" 
d="M80.5 26q-49.5 38 -49.5 103q0 84 84.5 124.5t256.5 56.5v9q0 55 -28.5 86.5t-85.5 31.5q-45 0 -74.5 -20.5t-37.5 -56.5l-81 24q20 56 71 88t119 32q102 0 149.5 -49t47.5 -152v-116q0 -93 18 -187h-77l-20 68q-45 -80 -169 -80q-74 0 -123.5 38zM330.5 90
q41.5 35 41.5 114v39q-124 -10 -186 -36t-62 -76q0 -35 26.5 -55.5t72.5 -20.5q66 0 107.5 35zM181 591q-32 32 -32 77t32 77t77 32t77 -32t32 -77t-32 -77t-77 -32t-77 32zM295 631q15 15 15 37t-15 37t-37 15t-37 -15t-15 -37t15 -37t37 -15t37 15z" />
    <glyph glyph-name="atilde" unicode="&#xe3;" horiz-adv-x="525" 
d="M80.5 26q-49.5 38 -49.5 103q0 84 84.5 124.5t256.5 56.5v9q0 55 -28.5 86.5t-85.5 31.5q-45 0 -74.5 -20.5t-37.5 -56.5l-81 24q20 56 71 88t119 32q102 0 149.5 -49t47.5 -152v-116q0 -93 18 -187h-77l-20 68q-45 -80 -169 -80q-74 0 -123.5 38zM330.5 90
q41.5 35 41.5 114v39q-124 -10 -186 -36t-62 -76q0 -35 26.5 -55.5t72.5 -20.5q66 0 107.5 35zM289 581q-16 6 -37 18q-18 10 -29 14.5t-23 4.5q-18 0 -29 -10.5t-13 -30.5h-65q9 52 37 78t69 26q20 0 35.5 -6t35.5 -18q32 -19 53 -19q14 0 23 5.5t16 17.5q11 19 29 19
q12 0 21.5 -9t9.5 -22q0 -12 -12 -30t-34 -31t-51 -13q-20 0 -36 6z" />
    <glyph glyph-name="ae" unicode="&#xe6;" horiz-adv-x="866" 
d="M83 26.5q-52 38.5 -52 104.5q0 82 89.5 121.5t253.5 39.5v27q0 55 -28.5 86.5t-85.5 31.5q-45 0 -74.5 -20.5t-37.5 -56.5l-81 24q20 56 71 88t119 32q128 0 170 -84q32 40 78 62t100 22q76 0 130 -39t80 -103.5t21 -136.5h-380q7 -89 50.5 -126t101.5 -37q77 0 115 49
l81 -24q-28 -45 -79 -72t-118 -27q-66 0 -115.5 27.5t-78.5 76.5q-56 -104 -200 -104q-78 0 -130 38.5zM333.5 91.5q40.5 36.5 40.5 120.5v13q-250 0 -250 -92q0 -36 26.5 -57t76.5 -21q66 0 106.5 36.5zM729 360q-17 32 -49.5 52t-74.5 20q-59 0 -99 -34t-49 -106h290
q-1 36 -18 68z" />
    <glyph glyph-name="b" unicode="b" horiz-adv-x="566" 
d="M219.5 11q-40.5 23 -63.5 64l-22 -75h-62v708h84v-290q23 41 63.5 63.5t97.5 22.5t106 -31t78 -89.5t29 -137.5t-29 -137.5t-78 -89.5t-106 -31t-97.5 23zM398 109.5q38 49.5 38 136.5t-38 136.5t-103 49.5t-103 -49.5t-38 -136.5t38 -136.5t103 -49.5t103 49.5z" />
    <glyph glyph-name="c" unicode="c" horiz-adv-x="485" 
d="M145 21q-52 33 -80.5 91.5t-28.5 133.5q0 74 29.5 132.5t84 92t126.5 33.5q63 0 112 -31.5t75 -80.5l-77 -28q-17 30 -47.5 48t-68.5 18q-61 0 -102 -47t-41 -136q0 -60 19.5 -101.5t52.5 -62.5t71 -21q39 0 70 18t48 47l77 -28q-29 -50 -81.5 -80.5t-116.5 -30.5
q-70 0 -122 33z" />
    <glyph glyph-name="cacute" unicode="&#x107;" horiz-adv-x="485" 
d="M145 21q-52 33 -80.5 91.5t-28.5 133.5q0 74 29.5 132.5t84 92t126.5 33.5q63 0 112 -31.5t75 -80.5l-77 -28q-17 30 -47.5 48t-68.5 18q-61 0 -102 -47t-41 -136q0 -60 19.5 -101.5t52.5 -62.5t71 -21q39 0 70 18t48 47l77 -28q-29 -50 -81.5 -80.5t-116.5 -30.5
q-70 0 -122 33zM345 699q10 7 22 7q16 0 26.5 -9.5t10.5 -26.5q0 -12 -9 -23.5t-31 -30.5l-54 -45h-69l81 104q13 17 23 24z" />
    <glyph glyph-name="ccaron" unicode="&#x10d;" horiz-adv-x="485" 
d="M145 21q-52 33 -80.5 91.5t-28.5 133.5q0 74 29.5 132.5t84 92t126.5 33.5q63 0 112 -31.5t75 -80.5l-77 -28q-17 30 -47.5 48t-68.5 18q-61 0 -102 -47t-41 -136q0 -60 19.5 -101.5t52.5 -62.5t71 -21q39 0 70 18t48 47l77 -28q-29 -50 -81.5 -80.5t-116.5 -30.5
q-70 0 -122 33zM222 588l-112 101h94l67 -61l68 61h94l-112 -101q-20 -19 -49 -19q-30 0 -50 19z" />
    <glyph glyph-name="ccedilla" unicode="&#xe7;" horiz-adv-x="485" 
d="M174 -163l14 35q32 -14 58 -14q28 0 40.5 10t12.5 24q0 13 -9.5 21t-28.5 8q-17 0 -33 -4q-3 -1 -9 -1q-8 0 -13 4.5t-5 11.5q0 3 4 11l29 47q-91 11 -144.5 81t-53.5 175q0 74 29.5 132.5t84 92t126.5 33.5q63 0 112 -31.5t75 -80.5l-77 -28q-17 30 -47.5 48t-68.5 18
q-61 0 -102 -47t-41 -136q0 -60 19.5 -101.5t52.5 -62.5t71 -21q39 0 70 18t48 47l77 -28q-27 -47 -76 -77t-109 -34l-20 -33q22 4 30 4q33 0 51 -18.5t18 -44.5q0 -31 -25.5 -55t-71.5 -24q-39 0 -88 20z" />
    <glyph glyph-name="cdotaccent" unicode="&#x10b;" horiz-adv-x="485" 
d="M145 21q-52 33 -80.5 91.5t-28.5 133.5q0 74 29.5 132.5t84 92t126.5 33.5q63 0 112 -31.5t75 -80.5l-77 -28q-17 30 -47.5 48t-68.5 18q-61 0 -102 -47t-41 -136q0 -60 19.5 -101.5t52.5 -62.5t71 -21q39 0 70 18t48 47l77 -28q-29 -50 -81.5 -80.5t-116.5 -30.5
q-70 0 -122 33zM234 606q-16 16 -16 38q0 23 16 38.5t38 15.5q23 0 38.5 -15.5t15.5 -38.5q0 -22 -15.5 -38t-38.5 -16q-22 0 -38 16z" />
    <glyph glyph-name="d" unicode="d" horiz-adv-x="564" 
d="M143 19q-49 31 -78 89.5t-29 137.5t29 137.5t78 89.5t106 31t97.5 -22.5t63.5 -63.5v290h84v-521q0 -95 17 -187h-79l-22 75q-21 -41 -62.5 -64t-98.5 -23t-106 31zM374 109.5q38 49.5 38 136.5t-38 136.5t-103 49.5t-103 -49.5t-38 -136.5t38 -136.5t103 -49.5t103 49.5
z" />
    <glyph glyph-name="dcaron" unicode="&#x10f;" horiz-adv-x="634" 
d="M143 19q-49 31 -78 89.5t-29 137.5t29 137.5t78 89.5t106 31t97.5 -22.5t63.5 -63.5v290h84v-521q0 -95 17 -187h-79l-22 75q-21 -41 -62.5 -64t-98.5 -23t-106 31zM374 109.5q38 49.5 38 136.5t-38 136.5t-103 49.5t-103 -49.5t-38 -136.5t38 -136.5t103 -49.5t103 49.5
zM591.5 709.5q9.5 9.5 25.5 9.5t26.5 -9.5t10.5 -25.5q0 -13 -11 -41l-40 -107h-49l26 154q2 10 11.5 19.5z" />
    <glyph glyph-name="dcroat" unicode="&#x111;" horiz-adv-x="564" 
d="M143 19q-49 31 -78 89.5t-29 137.5t29 137.5t78 89.5t106 31t97.5 -22.5t63.5 -63.5v130h-159v67h159v93h84v-93h86v-67h-86v-361q0 -95 17 -187h-79l-22 75q-21 -41 -62.5 -64t-98.5 -23t-106 31zM374 109.5q38 49.5 38 136.5t-38 136.5t-103 49.5t-103 -49.5
t-38 -136.5t38 -136.5t103 -49.5t103 49.5z" />
    <glyph glyph-name="eth" unicode="&#xf0;" horiz-adv-x="565" 
d="M148.5 19q-53.5 31 -83 84t-29.5 115q0 66 28 117.5t77 80.5t111 29q63 0 107 -25t69 -67q-4 86 -22.5 138.5t-51.5 84.5l-73 -73l-36 36l66 66q-49 26 -138 26v77q121 0 196 -45l46 46l36 -36l-40 -40q52 -47 78 -130t26 -187q0 -328 -244 -328q-69 0 -122.5 31z
M377 102q40 43 40 113t-40 113t-106 43t-105.5 -43.5t-39.5 -112.5t39.5 -112.5t105.5 -43.5t106 43z" />
    <glyph glyph-name="e" unicode="e" horiz-adv-x="538" 
d="M148 22q-55 34 -83.5 92.5t-28.5 132.5q0 77 31.5 135.5t86.5 90t123 31.5q76 0 130 -39t80 -103.5t21 -136.5h-384q7 -88 53.5 -125.5t101.5 -37.5q78 0 116 49l81 -24q-28 -45 -79 -72t-118 -27q-76 0 -131 34zM401 360q-17 32 -49.5 52t-74.5 20q-57 0 -99.5 -33
t-52.5 -107h294q-1 36 -18 68z" />
    <glyph glyph-name="eacute" unicode="&#xe9;" horiz-adv-x="538" 
d="M148 22q-55 34 -83.5 92.5t-28.5 132.5q0 77 31.5 135.5t86.5 90t123 31.5q76 0 130 -39t80 -103.5t21 -136.5h-384q7 -88 53.5 -125.5t101.5 -37.5q78 0 116 49l81 -24q-28 -45 -79 -72t-118 -27q-76 0 -131 34zM401 360q-17 32 -49.5 52t-74.5 20q-57 0 -99.5 -33
t-52.5 -107h294q-1 36 -18 68zM354 699q10 7 22 7q16 0 26.5 -9.5t10.5 -26.5q0 -12 -9 -23.5t-31 -30.5l-54 -45h-69l81 104q13 17 23 24z" />
    <glyph glyph-name="ecaron" unicode="&#x11b;" horiz-adv-x="538" 
d="M148 22q-55 34 -83.5 92.5t-28.5 132.5q0 77 31.5 135.5t86.5 90t123 31.5q76 0 130 -39t80 -103.5t21 -136.5h-384q7 -88 53.5 -125.5t101.5 -37.5q78 0 116 49l81 -24q-28 -45 -79 -72t-118 -27q-76 0 -131 34zM401 360q-17 32 -49.5 52t-74.5 20q-57 0 -99.5 -33
t-52.5 -107h294q-1 36 -18 68zM231 588l-112 101h94l67 -61l68 61h94l-112 -101q-20 -19 -49 -19q-30 0 -50 19z" />
    <glyph glyph-name="ecircumflex" unicode="&#xea;" horiz-adv-x="538" 
d="M148 22q-55 34 -83.5 92.5t-28.5 132.5q0 77 31.5 135.5t86.5 90t123 31.5q76 0 130 -39t80 -103.5t21 -136.5h-384q7 -88 53.5 -125.5t101.5 -37.5q78 0 116 49l81 -24q-28 -45 -79 -72t-118 -27q-76 0 -131 34zM401 360q-17 32 -49.5 52t-74.5 20q-57 0 -99.5 -33
t-52.5 -107h294q-1 36 -18 68zM281 695q29 0 49 -19l112 -101h-94l-68 61l-67 -61h-94l112 101q20 19 50 19z" />
    <glyph glyph-name="edieresis" unicode="&#xeb;" horiz-adv-x="538" 
d="M148 22q-55 34 -83.5 92.5t-28.5 132.5q0 77 31.5 135.5t86.5 90t123 31.5q76 0 130 -39t80 -103.5t21 -136.5h-384q7 -88 53.5 -125.5t101.5 -37.5q78 0 116 49l81 -24q-28 -45 -79 -72t-118 -27q-76 0 -131 34zM401 360q-17 32 -49.5 52t-74.5 20q-57 0 -99.5 -33
t-52.5 -107h294q-1 36 -18 68zM333 606q-16 16 -16 38q0 23 16 38.5t38 15.5q23 0 38.5 -15.5t15.5 -38.5q0 -22 -15.5 -38t-38.5 -16q-22 0 -38 16zM153 606q-16 16 -16 38q0 23 16 38.5t38 15.5q23 0 38.5 -15.5t15.5 -38.5q0 -22 -15.5 -38t-38.5 -16q-22 0 -38 16z" />
    <glyph glyph-name="edotaccent" unicode="&#x117;" horiz-adv-x="538" 
d="M148 22q-55 34 -83.5 92.5t-28.5 132.5q0 77 31.5 135.5t86.5 90t123 31.5q76 0 130 -39t80 -103.5t21 -136.5h-384q7 -88 53.5 -125.5t101.5 -37.5q78 0 116 49l81 -24q-28 -45 -79 -72t-118 -27q-76 0 -131 34zM401 360q-17 32 -49.5 52t-74.5 20q-57 0 -99.5 -33
t-52.5 -107h294q-1 36 -18 68zM243 606q-16 16 -16 38q0 23 16 38.5t38 15.5q23 0 38.5 -15.5t15.5 -38.5q0 -22 -15.5 -38t-38.5 -16q-22 0 -38 16z" />
    <glyph glyph-name="egrave" unicode="&#xe8;" horiz-adv-x="538" 
d="M148 22q-55 34 -83.5 92.5t-28.5 132.5q0 77 31.5 135.5t86.5 90t123 31.5q76 0 130 -39t80 -103.5t21 -136.5h-384q7 -88 53.5 -125.5t101.5 -37.5q78 0 116 49l81 -24q-28 -45 -79 -72t-118 -27q-76 0 -131 34zM401 360q-17 32 -49.5 52t-74.5 20q-57 0 -99.5 -33
t-52.5 -107h294q-1 36 -18 68zM158 646.5q-9 11.5 -9 23.5q0 17 10.5 26.5t26.5 9.5q12 0 22 -7t23 -24l81 -104h-69l-54 45q-22 19 -31 30.5z" />
    <glyph glyph-name="emacron" unicode="&#x113;" horiz-adv-x="538" 
d="M148 22q-55 34 -83.5 92.5t-28.5 132.5q0 77 31.5 135.5t86.5 90t123 31.5q76 0 130 -39t80 -103.5t21 -136.5h-384q7 -88 53.5 -125.5t101.5 -37.5q78 0 116 49l81 -24q-28 -45 -79 -72t-118 -27q-76 0 -131 34zM401 360q-17 32 -49.5 52t-74.5 20q-57 0 -99.5 -33
t-52.5 -107h294q-1 36 -18 68zM143 668h276v-67h-276v67z" />
    <glyph glyph-name="eogonek" unicode="&#x119;" horiz-adv-x="538" 
d="M303.5 -149q-25.5 24 -25.5 58q0 45 30 80q-9 -1 -27 -1q-74 0 -129.5 32t-85.5 90.5t-30 136.5q0 77 31.5 135.5t86.5 90t123 31.5q76 0 130 -39t80 -103.5t21 -136.5h-384q7 -88 53.5 -125.5t101.5 -37.5q78 0 116 49l81 -24q-25 -39 -72 -69q-24 -15 -40 -38.5
t-16 -50.5q0 -22 13.5 -33t35.5 -11q21 0 38 8v-54q-34 -12 -63 -12q-43 0 -68.5 24zM401 360q-17 32 -49.5 52t-74.5 20q-57 0 -99.5 -33t-52.5 -107h294q-1 36 -18 68z" />
    <glyph glyph-name="f" unicode="f" horiz-adv-x="314" 
d="M99 429h-84v67h84v86q0 54 10.5 82.5t38.5 41t84 12.5h54v-71h-52q-32 0 -41.5 -12.5t-9.5 -51.5v-87h103v-67h-103v-429h-84v429z" />
    <glyph glyph-name="g" unicode="g" horiz-adv-x="558" 
d="M150.5 -163q-54.5 29 -72.5 87l82 25q11 -33 42 -50.5t76 -17.5q59 0 92.5 30.5t33.5 97.5v85q-51 -85 -158 -85q-56 0 -104 29t-77 85t-29 133t29 133t77 85.5t104 29.5q107 0 158 -86l23 78h61v-488q0 -97 -58 -148.5t-158 -51.5q-67 0 -121.5 29zM367.5 123
q39.5 44 39.5 133t-39.5 132.5t-100.5 43.5q-63 0 -101.5 -46.5t-38.5 -129.5t38.5 -130t101.5 -47q61 0 100.5 44z" />
    <glyph glyph-name="gbreve" unicode="&#x11f;" horiz-adv-x="558" 
d="M150.5 -163q-54.5 29 -72.5 87l82 25q11 -33 42 -50.5t76 -17.5q59 0 92.5 30.5t33.5 97.5v85q-51 -85 -158 -85q-56 0 -104 29t-77 85t-29 133t29 133t77 85.5t104 29.5q107 0 158 -86l23 78h61v-488q0 -97 -58 -148.5t-158 -51.5q-67 0 -121.5 29zM367.5 123
q39.5 44 39.5 133t-39.5 132.5t-100.5 43.5q-63 0 -101.5 -46.5t-38.5 -129.5t38.5 -130t101.5 -47q61 0 100.5 44zM183.5 603q-40.5 34 -51.5 86h68q8 -23 29.5 -38t48.5 -15q26 0 47.5 15t30.5 38h68q-11 -52 -52 -86t-94 -34q-54 0 -94.5 34z" />
    <glyph glyph-name="uni0123" unicode="&#x123;" horiz-adv-x="558" 
d="M150.5 -163q-54.5 29 -72.5 87l82 25q11 -33 42 -50.5t76 -17.5q59 0 92.5 30.5t33.5 97.5v85q-51 -85 -158 -85q-56 0 -104 29t-77 85t-29 133t29 133t77 85.5t104 29.5q107 0 158 -86l23 78h61v-488q0 -97 -58 -148.5t-158 -51.5q-67 0 -121.5 29zM367.5 123
q39.5 44 39.5 133t-39.5 132.5t-100.5 43.5q-63 0 -101.5 -46.5t-38.5 -129.5t38.5 -130t101.5 -47q61 0 100.5 44zM229 617q-14 23 -14 49q0 47 33.5 77t86.5 30l40 -34q-36 0 -65 -14t-29 -55q0 -21 12 -38.5t38 -26.5l-60 -26q-28 15 -42 38z" />
    <glyph glyph-name="gdotaccent" unicode="&#x121;" horiz-adv-x="558" 
d="M150.5 -163q-54.5 29 -72.5 87l82 25q11 -33 42 -50.5t76 -17.5q59 0 92.5 30.5t33.5 97.5v85q-51 -85 -158 -85q-56 0 -104 29t-77 85t-29 133t29 133t77 85.5t104 29.5q107 0 158 -86l23 78h61v-488q0 -97 -58 -148.5t-158 -51.5q-67 0 -121.5 29zM367.5 123
q39.5 44 39.5 133t-39.5 132.5t-100.5 43.5q-63 0 -101.5 -46.5t-38.5 -129.5t38.5 -130t101.5 -47q61 0 100.5 44zM240 606q-16 16 -16 38q0 23 16 38.5t38 15.5q23 0 38.5 -15.5t15.5 -38.5q0 -22 -15.5 -38t-38.5 -16q-22 0 -38 16z" />
    <glyph glyph-name="h" unicode="h" horiz-adv-x="550" 
d="M72 708h84v-287q49 83 160 83q164 0 164 -190v-314h-84v289q0 68 -21.5 105.5t-87.5 37.5q-62 0 -96.5 -42t-34.5 -121v-269h-84v708z" />
    <glyph glyph-name="hbar" unicode="&#x127;" horiz-adv-x="550" 
d="M72 548h-86v67h86v93h84v-93h159v-67h-159v-127q49 83 160 83q164 0 164 -190v-314h-84v289q0 68 -21.5 105.5t-87.5 37.5q-62 0 -96.5 -42t-34.5 -121v-269h-84v548z" />
    <glyph glyph-name="i" unicode="i" horiz-adv-x="252" 
d="M94 429h-69v67h153v-496h-84v429zM84.5 608.5q-18.5 18.5 -18.5 43.5q0 26 18.5 44t43.5 18q26 0 44 -18t18 -44q0 -25 -18 -43.5t-44 -18.5q-25 0 -43.5 18.5z" />
    <glyph glyph-name="dotlessi" unicode="&#x131;" horiz-adv-x="252" 
d="M94 429h-69v67h153v-496h-84v429z" />
    <glyph glyph-name="iacute" unicode="&#xed;" horiz-adv-x="252" 
d="M94 429h-69v67h153v-496h-84v429zM201 699q10 7 22 7q16 0 26.5 -9.5t10.5 -26.5q0 -12 -9 -23.5t-31 -30.5l-54 -45h-69l81 104q13 17 23 24z" />
    <glyph glyph-name="icircumflex" unicode="&#xee;" horiz-adv-x="252" 
d="M94 429h-69v67h153v-496h-84v429zM128 695q29 0 49 -19l112 -101h-94l-68 61l-67 -61h-94l112 101q20 19 50 19z" />
    <glyph glyph-name="idieresis" unicode="&#xef;" horiz-adv-x="266" 
d="M101 429h-69v67h153v-496h-84v429zM187 606q-16 16 -16 38q0 23 16 38.5t38 15.5q23 0 38.5 -15.5t15.5 -38.5q0 -22 -15.5 -38t-38.5 -16q-22 0 -38 16zM7 606q-16 16 -16 38q0 23 16 38.5t38 15.5q23 0 38.5 -15.5t15.5 -38.5q0 -22 -15.5 -38t-38.5 -16q-22 0 -38 16z
" />
    <glyph glyph-name="igrave" unicode="&#xec;" horiz-adv-x="252" 
d="M94 429h-69v67h153v-496h-84v429zM5 646.5q-9 11.5 -9 23.5q0 17 10.5 26.5t26.5 9.5q12 0 22 -7t23 -24l81 -104h-69l-54 45q-22 19 -31 30.5z" />
    <glyph glyph-name="imacron" unicode="&#x12b;" horiz-adv-x="252" 
d="M94 429h-69v67h153v-496h-84v429zM-10 668h276v-67h-276v67z" />
    <glyph glyph-name="iogonek" unicode="&#x12f;" horiz-adv-x="252" 
d="M84.5 608.5q-18.5 18.5 -18.5 43.5q0 26 18.5 44t43.5 18q26 0 44 -18t18 -44q0 -25 -18 -43.5t-44 -18.5q-25 0 -43.5 18.5zM46.5 -149q-25.5 24 -25.5 58q0 32 18.5 55.5t54.5 41.5v423h-69v67h153v-496q-49 -17 -68 -34.5t-19 -39.5q0 -20 13.5 -30.5t35.5 -10.5
q21 0 38 8v-54q-34 -12 -63 -12q-43 0 -68.5 24z" />
    <glyph glyph-name="ij" unicode="&#x133;" horiz-adv-x="497" 
d="M94 429h-69v67h153v-496h-84v429zM84.5 608.5q-18.5 18.5 -18.5 43.5q0 26 18.5 44t43.5 18q26 0 44 -18t18 -44q0 -25 -18 -43.5t-44 -18.5q-25 0 -43.5 18.5zM191 -88h52q42 0 62 7t27 26t7 59v492h84v-497q0 -63 -16 -97.5t-52.5 -49t-103.5 -14.5h-60v74z
M337.5 608.5q-18.5 18.5 -18.5 43.5q0 26 18.5 44t43.5 18q26 0 44 -18t18 -44q0 -25 -18 -43.5t-44 -18.5q-25 0 -43.5 18.5z" />
    <glyph glyph-name="j" unicode="j" horiz-adv-x="245" 
d="M-61 -88h52q42 0 62 7t27 26t7 59v492h84v-497q0 -63 -16 -97.5t-52.5 -49t-103.5 -14.5h-60v74zM85.5 608.5q-18.5 18.5 -18.5 43.5q0 26 18.5 44t43.5 18q26 0 44 -18t18 -44q0 -25 -18 -43.5t-44 -18.5q-25 0 -43.5 18.5z" />
    <glyph glyph-name="uni0237" unicode="&#x237;" horiz-adv-x="245" 
d="M-61 -88h52q42 0 62 7t27 26t7 59v492h84v-497q0 -63 -16 -97.5t-52.5 -49t-103.5 -14.5h-60v74z" />
    <glyph glyph-name="uni006A0301" horiz-adv-x="245" 
d="M-61 -88h52q42 0 62 7t27 26t7 59v492h84v-497q0 -63 -16 -97.5t-52.5 -49t-103.5 -14.5h-60v74zM202 699q10 7 22 7q16 0 26.5 -9.5t10.5 -26.5q0 -12 -9 -23.5t-31 -30.5l-54 -45h-69l81 104q13 17 23 24z" />
    <glyph glyph-name="k" unicode="k" horiz-adv-x="492" 
d="M72 708h84v-435l200 223h101l-187 -205l212 -291h-103l-165 229l-58 -63v-166h-84v708z" />
    <glyph glyph-name="uni0137" unicode="&#x137;" horiz-adv-x="492" 
d="M72 708h84v-435l200 223h101l-187 -205l212 -291h-103l-165 229l-58 -63v-166h-84v708zM220 -202q29 14 29 55q0 21 -12 38.5t-38 26.5l60 26q28 -15 42 -38t14 -49q0 -47 -33.5 -77t-86.5 -30l-40 34q36 0 65 14z" />
    <glyph glyph-name="l" unicode="l" horiz-adv-x="262" 
d="M114 10q-25 10 -35.5 35t-10.5 73v590h84v-580q0 -23 4 -34t15.5 -15.5t36.5 -4.5h34v-74h-55q-48 0 -73 10z" />
    <glyph glyph-name="lcaron" unicode="&#x13e;" horiz-adv-x="317" 
d="M114 10q-25 10 -35.5 35t-10.5 73v590h84v-580q0 -23 4 -34t15.5 -15.5t36.5 -4.5h34v-74h-55q-48 0 -73 10zM249.5 710.5q9.5 9.5 25.5 9.5t26.5 -9.5t10.5 -25.5q0 -13 -11 -41l-40 -107h-49l26 154q2 10 11.5 19.5z" />
    <glyph glyph-name="uni013C" unicode="&#x13c;" horiz-adv-x="262" 
d="M114 10q-25 10 -35.5 35t-10.5 73v590h84v-580q0 -23 4 -34t15.5 -15.5t36.5 -4.5h34v-74h-55q-48 0 -73 10zM98 -202q29 14 29 55q0 21 -12 38.5t-38 26.5l60 26q28 -15 42 -38t14 -49q0 -47 -33.5 -77t-86.5 -30l-40 34q36 0 65 14z" />
    <glyph glyph-name="lslash" unicode="&#x142;" horiz-adv-x="296" 
d="M134 10q-25 10 -35.5 35t-10.5 73v151l-61 -37v71l61 37v368h84v-317l86 52v-71l-86 -52v-192q0 -23 4 -34t15.5 -15.5t36.5 -4.5h34v-74h-55q-48 0 -73 10z" />
    <glyph glyph-name="m" unicode="m" horiz-adv-x="845" 
d="M72 496h62l22 -75q49 83 149 83q108 0 143 -87q57 87 167 87q83 0 121.5 -50.5t38.5 -139.5v-314h-84v289q0 68 -21.5 105.5t-84.5 37.5q-55 0 -87 -42.5t-32 -120.5v-269h-84v289q0 67 -22 105t-84 38q-55 0 -87.5 -42.5t-32.5 -120.5v-269h-84v496z" />
    <glyph glyph-name="n" unicode="n" horiz-adv-x="550" 
d="M72 496h62l22 -75q49 83 160 83q164 0 164 -190v-314h-84v289q0 68 -21.5 105.5t-87.5 37.5q-62 0 -96.5 -42t-34.5 -121v-269h-84v496z" />
    <glyph glyph-name="nacute" unicode="&#x144;" horiz-adv-x="550" 
d="M72 496h62l22 -75q49 83 160 83q164 0 164 -190v-314h-84v289q0 68 -21.5 105.5t-87.5 37.5q-62 0 -96.5 -42t-34.5 -121v-269h-84v496zM348 699q10 7 22 7q16 0 26.5 -9.5t10.5 -26.5q0 -12 -9 -23.5t-31 -30.5l-54 -45h-69l81 104q13 17 23 24z" />
    <glyph glyph-name="ncaron" unicode="&#x148;" horiz-adv-x="550" 
d="M72 496h62l22 -75q49 83 160 83q164 0 164 -190v-314h-84v289q0 68 -21.5 105.5t-87.5 37.5q-62 0 -96.5 -42t-34.5 -121v-269h-84v496zM225 588l-112 101h94l67 -61l68 61h94l-112 -101q-20 -19 -49 -19q-30 0 -50 19z" />
    <glyph glyph-name="uni0146" unicode="&#x146;" horiz-adv-x="550" 
d="M72 496h62l22 -75q49 83 160 83q164 0 164 -190v-314h-84v289q0 68 -21.5 105.5t-87.5 37.5q-62 0 -96.5 -42t-34.5 -121v-269h-84v496zM248 -202q29 14 29 55q0 21 -12 38.5t-38 26.5l60 26q28 -15 42 -38t14 -49q0 -47 -33.5 -77t-86.5 -30l-40 34q36 0 65 14z" />
    <glyph glyph-name="ntilde" unicode="&#xf1;" horiz-adv-x="550" 
d="M72 496h62l22 -75q49 83 160 83q164 0 164 -190v-314h-84v289q0 68 -21.5 105.5t-87.5 37.5q-62 0 -96.5 -42t-34.5 -121v-269h-84v496zM306 581q-16 6 -37 18q-18 10 -29 14.5t-23 4.5q-18 0 -29 -10.5t-13 -30.5h-65q9 52 37 78t69 26q20 0 35.5 -6t35.5 -18
q32 -19 53 -19q14 0 23 5.5t16 17.5q11 19 29 19q12 0 21.5 -9t9.5 -22q0 -12 -12 -30t-34 -31t-51 -13q-20 0 -36 6z" />
    <glyph glyph-name="o" unicode="o" horiz-adv-x="548" 
d="M159.5 16.5q-54.5 28.5 -89 86.5t-34.5 143t34.5 143t89 86.5t114.5 28.5t114.5 -28.5t89 -86.5t34.5 -143t-34.5 -143t-89 -86.5t-114.5 -28.5t-114.5 28.5zM347 82q34 20 54.5 61.5t20.5 102.5t-20.5 102.5t-54.5 61.5t-73 20t-73 -20t-54.5 -61.5t-20.5 -102.5
t20.5 -102.5t54.5 -61.5t73 -20t73 20z" />
    <glyph glyph-name="oacute" unicode="&#xf3;" horiz-adv-x="548" 
d="M159.5 16.5q-54.5 28.5 -89 86.5t-34.5 143t34.5 143t89 86.5t114.5 28.5t114.5 -28.5t89 -86.5t34.5 -143t-34.5 -143t-89 -86.5t-114.5 -28.5t-114.5 28.5zM347 82q34 20 54.5 61.5t20.5 102.5t-20.5 102.5t-54.5 61.5t-73 20t-73 -20t-54.5 -61.5t-20.5 -102.5
t20.5 -102.5t54.5 -61.5t73 -20t73 20zM347 699q10 7 22 7q16 0 26.5 -9.5t10.5 -26.5q0 -12 -9 -23.5t-31 -30.5l-54 -45h-69l81 104q13 17 23 24z" />
    <glyph glyph-name="ocircumflex" unicode="&#xf4;" horiz-adv-x="548" 
d="M159.5 16.5q-54.5 28.5 -89 86.5t-34.5 143t34.5 143t89 86.5t114.5 28.5t114.5 -28.5t89 -86.5t34.5 -143t-34.5 -143t-89 -86.5t-114.5 -28.5t-114.5 28.5zM347 82q34 20 54.5 61.5t20.5 102.5t-20.5 102.5t-54.5 61.5t-73 20t-73 -20t-54.5 -61.5t-20.5 -102.5
t20.5 -102.5t54.5 -61.5t73 -20t73 20zM274 695q29 0 49 -19l112 -101h-94l-68 61l-67 -61h-94l112 101q20 19 50 19z" />
    <glyph glyph-name="odieresis" unicode="&#xf6;" horiz-adv-x="548" 
d="M159.5 16.5q-54.5 28.5 -89 86.5t-34.5 143t34.5 143t89 86.5t114.5 28.5t114.5 -28.5t89 -86.5t34.5 -143t-34.5 -143t-89 -86.5t-114.5 -28.5t-114.5 28.5zM347 82q34 20 54.5 61.5t20.5 102.5t-20.5 102.5t-54.5 61.5t-73 20t-73 -20t-54.5 -61.5t-20.5 -102.5
t20.5 -102.5t54.5 -61.5t73 -20t73 20zM326 606q-16 16 -16 38q0 23 16 38.5t38 15.5q23 0 38.5 -15.5t15.5 -38.5q0 -22 -15.5 -38t-38.5 -16q-22 0 -38 16zM146 606q-16 16 -16 38q0 23 16 38.5t38 15.5q23 0 38.5 -15.5t15.5 -38.5q0 -22 -15.5 -38t-38.5 -16
q-22 0 -38 16z" />
    <glyph glyph-name="ograve" unicode="&#xf2;" horiz-adv-x="548" 
d="M159.5 16.5q-54.5 28.5 -89 86.5t-34.5 143t34.5 143t89 86.5t114.5 28.5t114.5 -28.5t89 -86.5t34.5 -143t-34.5 -143t-89 -86.5t-114.5 -28.5t-114.5 28.5zM347 82q34 20 54.5 61.5t20.5 102.5t-20.5 102.5t-54.5 61.5t-73 20t-73 -20t-54.5 -61.5t-20.5 -102.5
t20.5 -102.5t54.5 -61.5t73 -20t73 20zM151 646.5q-9 11.5 -9 23.5q0 17 10.5 26.5t26.5 9.5q12 0 22 -7t23 -24l81 -104h-69l-54 45q-22 19 -31 30.5z" />
    <glyph glyph-name="ohungarumlaut" unicode="&#x151;" horiz-adv-x="548" 
d="M159.5 16.5q-54.5 28.5 -89 86.5t-34.5 143t34.5 143t89 86.5t114.5 28.5t114.5 -28.5t89 -86.5t34.5 -143t-34.5 -143t-89 -86.5t-114.5 -28.5t-114.5 28.5zM347 82q34 20 54.5 61.5t20.5 102.5t-20.5 102.5t-54.5 61.5t-73 20t-73 -20t-54.5 -61.5t-20.5 -102.5
t20.5 -102.5t54.5 -61.5t73 -20t73 20zM272 699q10 7 22 7q15 0 24.5 -9.5t9.5 -24.5q0 -12 -9.5 -24.5t-31.5 -31.5l-54 -45h-65l81 104q13 17 23 24zM420 699q10 7 22 7q15 0 24.5 -9.5t9.5 -24.5q0 -12 -9.5 -24.5t-31.5 -31.5l-54 -45h-65l81 104q13 17 23 24z" />
    <glyph glyph-name="oslash" unicode="&#xf8;" horiz-adv-x="548" 
d="M197 0.5q-38 12.5 -70 36.5l-40 -47l-38 33l42 49q-55 70 -55 174q0 85 34.5 143t89 86.5t114.5 28.5q39 0 76.5 -12t68.5 -36l42 50l38 -33l-44 -51q57 -68 57 -176q0 -85 -34.5 -143t-89 -86.5t-114.5 -28.5q-39 0 -77 12.5zM347 82q34 20 54.5 61.5t20.5 102.5
q0 64 -24 109l-219 -257q41 -36 95 -36q39 0 73 20zM149 140l218 255q-39 35 -93 35q-39 0 -73 -20t-54.5 -61.5t-20.5 -102.5q0 -65 23 -106z" />
    <glyph glyph-name="otilde" unicode="&#xf5;" horiz-adv-x="548" 
d="M159.5 16.5q-54.5 28.5 -89 86.5t-34.5 143t34.5 143t89 86.5t114.5 28.5t114.5 -28.5t89 -86.5t34.5 -143t-34.5 -143t-89 -86.5t-114.5 -28.5t-114.5 28.5zM347 82q34 20 54.5 61.5t20.5 102.5t-20.5 102.5t-54.5 61.5t-73 20t-73 -20t-54.5 -61.5t-20.5 -102.5
t20.5 -102.5t54.5 -61.5t73 -20t73 20zM305 581q-16 6 -37 18q-18 10 -29 14.5t-23 4.5q-18 0 -29 -10.5t-13 -30.5h-65q9 52 37 78t69 26q20 0 35.5 -6t35.5 -18q32 -19 53 -19q14 0 23 5.5t16 17.5q11 19 29 19q12 0 21.5 -9t9.5 -22q0 -12 -12 -30t-34 -31t-51 -13
q-20 0 -36 6z" />
    <glyph glyph-name="oe" unicode="&#x153;" horiz-adv-x="924" 
d="M548.5 15q-50.5 27 -81.5 76q-32 -51 -83.5 -77t-109.5 -26q-60 0 -114.5 28.5t-89 86.5t-34.5 143t34.5 143t89 86.5t114.5 28.5q58 0 109.5 -26t84.5 -77q32 49 83 76t112 27q76 0 130 -39t80 -103.5t21 -136.5h-384q7 -88 53.5 -125.5t101.5 -37.5q78 0 116 49l81 -24
q-28 -45 -79 -72t-118 -27q-66 0 -116.5 27zM347 82q34 20 54.5 61.5t20.5 102.5t-20.5 102.5t-54.5 61.5t-73 20t-73 -20t-54.5 -61.5t-20.5 -102.5t20.5 -102.5t54.5 -61.5t73 -20t73 20zM787 360q-17 32 -49.5 52t-74.5 20q-57 0 -99.5 -33t-52.5 -107h294q-1 36 -18 68z
" />
    <glyph glyph-name="p" unicode="p" horiz-adv-x="566" 
d="M72 496h61l23 -78q23 41 63.5 63.5t97.5 22.5t106 -31t78 -89.5t29 -137.5t-29 -137.5t-78 -89.5t-106 -31t-97.5 23t-63.5 64v-237h-84v658zM398 109.5q38 49.5 38 136.5t-38 136.5t-103 49.5t-103 -49.5t-38 -136.5t38 -136.5t103 -49.5t103 49.5z" />
    <glyph glyph-name="thorn" unicode="&#xfe;" horiz-adv-x="566" 
d="M72 709h84v-291q23 41 63.5 63.5t97.5 22.5t106 -31t78 -89.5t29 -137.5t-29 -137.5t-78 -89.5t-106 -31t-97.5 23t-63.5 64v-237h-84v871zM398 109.5q38 49.5 38 136.5t-38 136.5t-103 49.5t-103 -49.5t-38 -136.5t38.5 -136.5t102.5 -49.5q65 0 103 49.5z" />
    <glyph glyph-name="q" unicode="q" horiz-adv-x="574" 
d="M447 -140.5q-37 32.5 -37 110.5v105q-21 -41 -62.5 -64t-98.5 -23t-106 31t-78 89.5t-29 137.5t29 137.5t78 89.5t106 31t97.5 -22.5t63.5 -63.5l23 78h61v-520q0 -35 16.5 -52.5t53.5 -17.5q34 0 60 12v-78q-36 -13 -80 -13q-60 0 -97 32.5zM374 109.5q38 49.5 38 136.5
t-38 136.5t-103 49.5t-103 -49.5t-38 -136.5t38 -136.5t103 -49.5t103 49.5z" />
    <glyph glyph-name="r" unicode="r" horiz-adv-x="349" 
d="M72 496h61l27 -92q27 47 72 73.5t105 26.5v-87q-99 0 -140 -50.5t-41 -153.5v-213h-84v496z" />
    <glyph glyph-name="racute" unicode="&#x155;" horiz-adv-x="349" 
d="M72 496h61l27 -92q27 47 72 73.5t105 26.5v-87q-99 0 -140 -50.5t-41 -153.5v-213h-84v496zM276 699q10 7 22 7q16 0 26.5 -9.5t10.5 -26.5q0 -12 -9 -23.5t-31 -30.5l-54 -45h-69l81 104q13 17 23 24z" />
    <glyph glyph-name="rcaron" unicode="&#x159;" horiz-adv-x="349" 
d="M72 496h61l27 -92q27 47 72 73.5t105 26.5v-87q-99 0 -140 -50.5t-41 -153.5v-213h-84v496zM153 588l-112 101h94l67 -61l68 61h94l-112 -101q-20 -19 -49 -19q-30 0 -50 19z" />
    <glyph glyph-name="s" unicode="s" horiz-adv-x="471" 
d="M112.5 19.5q-57.5 31.5 -81.5 92.5l81 30q10 -39 47 -61t81 -22q50 0 83.5 21t33.5 56q0 31 -25 48t-82 30l-58 13q-71 16 -109.5 47.5t-38.5 91.5q0 42 25.5 73.5t69.5 49t96 17.5q65 0 117 -26.5t74 -77.5l-79 -29q-13 30 -45.5 46t-72.5 16q-43 0 -72 -18t-29 -49
q0 -26 20 -41t65 -25l58 -13q86 -19 128 -51t42 -98q0 -44 -26.5 -78.5t-73 -54t-102.5 -19.5q-69 0 -126.5 31.5z" />
    <glyph glyph-name="sacute" unicode="&#x15b;" horiz-adv-x="471" 
d="M112.5 19.5q-57.5 31.5 -81.5 92.5l81 30q10 -39 47 -61t81 -22q50 0 83.5 21t33.5 56q0 31 -25 48t-82 30l-58 13q-71 16 -109.5 47.5t-38.5 91.5q0 42 25.5 73.5t69.5 49t96 17.5q65 0 117 -26.5t74 -77.5l-79 -29q-13 30 -45.5 46t-72.5 16q-43 0 -72 -18t-29 -49
q0 -26 20 -41t65 -25l58 -13q86 -19 128 -51t42 -98q0 -44 -26.5 -78.5t-73 -54t-102.5 -19.5q-69 0 -126.5 31.5zM309 699q10 7 22 7q16 0 26.5 -9.5t10.5 -26.5q0 -12 -9 -23.5t-31 -30.5l-54 -45h-69l81 104q13 17 23 24z" />
    <glyph glyph-name="scaron" unicode="&#x161;" horiz-adv-x="471" 
d="M112.5 19.5q-57.5 31.5 -81.5 92.5l81 30q10 -39 47 -61t81 -22q50 0 83.5 21t33.5 56q0 31 -25 48t-82 30l-58 13q-71 16 -109.5 47.5t-38.5 91.5q0 42 25.5 73.5t69.5 49t96 17.5q65 0 117 -26.5t74 -77.5l-79 -29q-13 30 -45.5 46t-72.5 16q-43 0 -72 -18t-29 -49
q0 -26 20 -41t65 -25l58 -13q86 -19 128 -51t42 -98q0 -44 -26.5 -78.5t-73 -54t-102.5 -19.5q-69 0 -126.5 31.5zM186 588l-112 101h94l67 -61l68 61h94l-112 -101q-20 -19 -49 -19q-30 0 -50 19z" />
    <glyph glyph-name="scedilla" unicode="&#x15f;" horiz-adv-x="471" 
d="M150 -163l14 35q32 -14 58 -14q28 0 40.5 10t12.5 24q0 13 -9.5 21t-28.5 8q-17 0 -33 -4q-3 -1 -9 -1q-8 0 -13 4.5t-5 11.5q0 3 4 11l29 46q-61 6 -109.5 37.5t-69.5 85.5l81 30q10 -39 47 -61t81 -22q50 0 83.5 21t33.5 56q0 31 -25 48t-82 30l-58 13
q-71 16 -109.5 47.5t-38.5 91.5q0 42 25.5 73.5t69.5 49t96 17.5q65 0 117 -26.5t74 -77.5l-79 -29q-13 30 -45.5 46t-72.5 16q-43 0 -72 -18t-29 -49q0 -26 20 -41t65 -25l58 -13q86 -19 128 -51t42 -98q0 -63 -52.5 -104.5t-131.5 -46.5l-21 -34q22 4 30 4q33 0 51 -18.5
t18 -44.5q0 -31 -25.5 -55t-71.5 -24q-39 0 -88 20z" />
    <glyph glyph-name="uni0219" unicode="&#x219;" horiz-adv-x="471" 
d="M112.5 19.5q-57.5 31.5 -81.5 92.5l81 30q10 -39 47 -61t81 -22q50 0 83.5 21t33.5 56q0 31 -25 48t-82 30l-58 13q-71 16 -109.5 47.5t-38.5 91.5q0 42 25.5 73.5t69.5 49t96 17.5q65 0 117 -26.5t74 -77.5l-79 -29q-13 30 -45.5 46t-72.5 16q-43 0 -72 -18t-29 -49
q0 -26 20 -41t65 -25l58 -13q86 -19 128 -51t42 -98q0 -44 -26.5 -78.5t-73 -54t-102.5 -19.5q-69 0 -126.5 31.5zM216 -202q29 14 29 55q0 21 -12 38.5t-38 26.5l60 26q28 -15 42 -38t14 -49q0 -47 -33.5 -77t-86.5 -30l-40 34q36 0 65 14z" />
    <glyph glyph-name="germandbls" unicode="&#xdf;" horiz-adv-x="582" 
d="M294 63q73 0 119.5 35.5t46.5 108.5t-56.5 116.5t-142.5 43.5h-12v73q66 -1 99 24.5t33 65.5q0 36 -26.5 58.5t-73.5 22.5q-56 0 -87.5 -34.5t-31.5 -106.5v-470h-84v474q0 99 50.5 152.5t152.5 53.5q52 0 94.5 -19t66.5 -53t24 -76t-23 -74t-66 -48q78 -16 125.5 -70.5
t47.5 -133.5q0 -109 -69.5 -163.5t-175.5 -54.5q-19 0 -29 1l-23 77q21 -3 41 -3z" />
    <glyph glyph-name="t" unicode="t" horiz-adv-x="326" 
d="M147.5 9.5q-24.5 9.5 -34 35.5t-9.5 79v305h-84v67h84v124h84v-124h103v-67h-103v-291q0 -29 4 -42t14 -17.5t33 -4.5h52v-74h-70q-49 0 -73.5 9.5z" />
    <glyph glyph-name="tcaron" unicode="&#x165;" horiz-adv-x="326" 
d="M147.5 9.5q-24.5 9.5 -34 35.5t-9.5 79v305h-84v67h84v124h84v-124h103v-67h-103v-291q0 -29 4 -42t14 -17.5t33 -4.5h52v-74h-70q-49 0 -73.5 9.5zM265.5 758.5q9.5 9.5 25.5 9.5t26.5 -9.5t10.5 -25.5q0 -13 -11 -41l-40 -107h-49l26 154q2 10 11.5 19.5z" />
    <glyph glyph-name="uni0163" unicode="&#x163;" horiz-adv-x="326" 
d="M99 -163l14 35q32 -14 58 -14q28 0 40.5 10t12.5 24q0 13 -9.5 21t-28.5 8q-17 0 -33 -4q-3 -1 -9 -1q-8 0 -13 4.5t-5 11.5q0 3 4 11l38 61q-37 7 -50.5 33t-13.5 87v305h-84v67h84v124h84v-124h103v-67h-103v-291q0 -29 4 -42t14 -17.5t33 -4.5h52v-74h-70h-8l-28 -45
q22 4 30 4q33 0 51 -18.5t18 -44.5q0 -31 -25.5 -55t-71.5 -24q-39 0 -88 20z" />
    <glyph glyph-name="uni021B" unicode="&#x21b;" horiz-adv-x="326" 
d="M147.5 9.5q-24.5 9.5 -34 35.5t-9.5 79v305h-84v67h84v124h84v-124h103v-67h-103v-291q0 -29 4 -42t14 -17.5t33 -4.5h52v-74h-70q-49 0 -73.5 9.5zM165 -202q29 14 29 55q0 21 -12 38.5t-38 26.5l60 26q28 -15 42 -38t14 -49q0 -47 -33.5 -77t-86.5 -30l-40 34
q36 0 65 14z" />
    <glyph glyph-name="u" unicode="u" horiz-adv-x="540" 
d="M108 39q-38 51 -38 141v316h84v-291q0 -68 21 -105.5t83 -37.5q60 0 93 41.5t33 120.5v272h84v-496h-63l-21 72q-49 -84 -155 -84q-83 0 -121 51z" />
    <glyph glyph-name="uacute" unicode="&#xfa;" horiz-adv-x="540" 
d="M108 39q-38 51 -38 141v316h84v-291q0 -68 21 -105.5t83 -37.5q60 0 93 41.5t33 120.5v272h84v-496h-63l-21 72q-49 -84 -155 -84q-83 0 -121 51zM343 699q10 7 22 7q16 0 26.5 -9.5t10.5 -26.5q0 -12 -9 -23.5t-31 -30.5l-54 -45h-69l81 104q13 17 23 24z" />
    <glyph glyph-name="ucircumflex" unicode="&#xfb;" horiz-adv-x="540" 
d="M108 39q-38 51 -38 141v316h84v-291q0 -68 21 -105.5t83 -37.5q60 0 93 41.5t33 120.5v272h84v-496h-63l-21 72q-49 -84 -155 -84q-83 0 -121 51zM270 695q29 0 49 -19l112 -101h-94l-68 61l-67 -61h-94l112 101q20 19 50 19z" />
    <glyph glyph-name="udieresis" unicode="&#xfc;" horiz-adv-x="540" 
d="M108 39q-38 51 -38 141v316h84v-291q0 -68 21 -105.5t83 -37.5q60 0 93 41.5t33 120.5v272h84v-496h-63l-21 72q-49 -84 -155 -84q-83 0 -121 51zM322 606q-16 16 -16 38q0 23 16 38.5t38 15.5q23 0 38.5 -15.5t15.5 -38.5q0 -22 -15.5 -38t-38.5 -16q-22 0 -38 16z
M142 606q-16 16 -16 38q0 23 16 38.5t38 15.5q23 0 38.5 -15.5t15.5 -38.5q0 -22 -15.5 -38t-38.5 -16q-22 0 -38 16z" />
    <glyph glyph-name="ugrave" unicode="&#xf9;" horiz-adv-x="540" 
d="M108 39q-38 51 -38 141v316h84v-291q0 -68 21 -105.5t83 -37.5q60 0 93 41.5t33 120.5v272h84v-496h-63l-21 72q-49 -84 -155 -84q-83 0 -121 51zM147 646.5q-9 11.5 -9 23.5q0 17 10.5 26.5t26.5 9.5q12 0 22 -7t23 -24l81 -104h-69l-54 45q-22 19 -31 30.5z" />
    <glyph glyph-name="uhungarumlaut" unicode="&#x171;" horiz-adv-x="540" 
d="M108 39q-38 51 -38 141v316h84v-291q0 -68 21 -105.5t83 -37.5q60 0 93 41.5t33 120.5v272h84v-496h-63l-21 72q-49 -84 -155 -84q-83 0 -121 51zM268 699q10 7 22 7q15 0 24.5 -9.5t9.5 -24.5q0 -12 -9.5 -24.5t-31.5 -31.5l-54 -45h-65l81 104q13 17 23 24zM416 699
q10 7 22 7q15 0 24.5 -9.5t9.5 -24.5q0 -12 -9.5 -24.5t-31.5 -31.5l-54 -45h-65l81 104q13 17 23 24z" />
    <glyph glyph-name="umacron" unicode="&#x16b;" horiz-adv-x="540" 
d="M108 39q-38 51 -38 141v316h84v-291q0 -68 21 -105.5t83 -37.5q60 0 93 41.5t33 120.5v272h84v-496h-63l-21 72q-49 -84 -155 -84q-83 0 -121 51zM132 668h276v-67h-276v67z" />
    <glyph glyph-name="uogonek" unicode="&#x173;" horiz-adv-x="540" 
d="M108 39q-38 51 -38 141v316h84v-291q0 -68 21 -105.5t83 -37.5q60 0 93 41.5t33 120.5v272h84v-496q-49 -17 -68 -34.5t-19 -39.5q0 -20 13.5 -30.5t35.5 -10.5q21 0 38 8v-54q-34 -12 -63 -12q-43 0 -68.5 24t-25.5 58q0 36 22.5 61t67.5 43l-17 59q-49 -84 -155 -84
q-83 0 -121 51z" />
    <glyph glyph-name="uring" unicode="&#x16f;" horiz-adv-x="540" 
d="M108 39q-38 51 -38 141v316h84v-291q0 -68 21 -105.5t83 -37.5q60 0 93 41.5t33 120.5v272h84v-496h-63l-21 72q-49 -84 -155 -84q-83 0 -121 51zM193 591q-32 32 -32 77t32 77t77 32t77 -32t32 -77t-32 -77t-77 -32t-77 32zM307 631q15 15 15 37t-15 37t-37 15t-37 -15
t-15 -37t15 -37t37 -15t37 15z" />
    <glyph glyph-name="v" unicode="v" horiz-adv-x="461" 
d="M10 496h91l130 -386l129 386h91l-177 -496h-87z" />
    <glyph glyph-name="w" unicode="w" horiz-adv-x="684" 
d="M15 496h90l95 -367l99 367h87l98 -367l95 367h90l-142 -496h-77l-108 399l-108 -399h-76z" />
    <glyph glyph-name="wacute" unicode="&#x1e83;" horiz-adv-x="684" 
d="M15 496h90l95 -367l99 367h87l98 -367l95 367h90l-142 -496h-77l-108 399l-108 -399h-76zM415 699q10 7 22 7q16 0 26.5 -9.5t10.5 -26.5q0 -12 -9 -23.5t-31 -30.5l-54 -45h-69l81 104q13 17 23 24z" />
    <glyph glyph-name="wcircumflex" unicode="&#x175;" horiz-adv-x="684" 
d="M15 496h90l95 -367l99 367h87l98 -367l95 367h90l-142 -496h-77l-108 399l-108 -399h-76zM342 695q29 0 49 -19l112 -101h-94l-68 61l-67 -61h-94l112 101q20 19 50 19z" />
    <glyph glyph-name="wdieresis" unicode="&#x1e85;" horiz-adv-x="684" 
d="M15 496h90l95 -367l99 367h87l98 -367l95 367h90l-142 -496h-77l-108 399l-108 -399h-76zM394 606q-16 16 -16 38q0 23 16 38.5t38 15.5q23 0 38.5 -15.5t15.5 -38.5q0 -22 -15.5 -38t-38.5 -16q-22 0 -38 16zM214 606q-16 16 -16 38q0 23 16 38.5t38 15.5
q23 0 38.5 -15.5t15.5 -38.5q0 -22 -15.5 -38t-38.5 -16q-22 0 -38 16z" />
    <glyph glyph-name="wgrave" unicode="&#x1e81;" horiz-adv-x="684" 
d="M15 496h90l95 -367l99 367h87l98 -367l95 367h90l-142 -496h-77l-108 399l-108 -399h-76zM219 646.5q-9 11.5 -9 23.5q0 17 10.5 26.5t26.5 9.5q12 0 22 -7t23 -24l81 -104h-69l-54 45q-22 19 -31 30.5z" />
    <glyph glyph-name="x" unicode="x" horiz-adv-x="481" 
d="M191 255l-172 241h99l122 -172l123 172h99l-172 -241l181 -255h-99l-132 185l-131 -185h-99z" />
    <glyph glyph-name="y" unicode="y" horiz-adv-x="449" 
d="M47 -88h41q32 0 48.5 5t27 20t20.5 46l5 16l-179 497h92l127 -379l118 379h92l-174 -518q-19 -57 -38 -86t-50 -41.5t-87 -12.5h-43v74z" />
    <glyph glyph-name="yacute" unicode="&#xfd;" horiz-adv-x="449" 
d="M47 -88h41q32 0 48.5 5t27 20t20.5 46l5 16l-179 497h92l127 -379l118 379h92l-174 -518q-19 -57 -38 -86t-50 -41.5t-87 -12.5h-43v74zM298 699q10 7 22 7q16 0 26.5 -9.5t10.5 -26.5q0 -12 -9 -23.5t-31 -30.5l-54 -45h-69l81 104q13 17 23 24z" />
    <glyph glyph-name="ycircumflex" unicode="&#x177;" horiz-adv-x="449" 
d="M47 -88h41q32 0 48.5 5t27 20t20.5 46l5 16l-179 497h92l127 -379l118 379h92l-174 -518q-19 -57 -38 -86t-50 -41.5t-87 -12.5h-43v74zM225 695q29 0 49 -19l112 -101h-94l-68 61l-67 -61h-94l112 101q20 19 50 19z" />
    <glyph glyph-name="ydieresis" unicode="&#xff;" horiz-adv-x="449" 
d="M47 -88h41q32 0 48.5 5t27 20t20.5 46l5 16l-179 497h92l127 -379l118 379h92l-174 -518q-19 -57 -38 -86t-50 -41.5t-87 -12.5h-43v74zM277 606q-16 16 -16 38q0 23 16 38.5t38 15.5q23 0 38.5 -15.5t15.5 -38.5q0 -22 -15.5 -38t-38.5 -16q-22 0 -38 16zM97 606
q-16 16 -16 38q0 23 16 38.5t38 15.5q23 0 38.5 -15.5t15.5 -38.5q0 -22 -15.5 -38t-38.5 -16q-22 0 -38 16z" />
    <glyph glyph-name="ygrave" unicode="&#x1ef3;" horiz-adv-x="449" 
d="M47 -88h41q32 0 48.5 5t27 20t20.5 46l5 16l-179 497h92l127 -379l118 379h92l-174 -518q-19 -57 -38 -86t-50 -41.5t-87 -12.5h-43v74zM102 646.5q-9 11.5 -9 23.5q0 17 10.5 26.5t26.5 9.5q12 0 22 -7t23 -24l81 -104h-69l-54 45q-22 19 -31 30.5z" />
    <glyph glyph-name="z" unicode="z" horiz-adv-x="460" 
d="M40 74l280 348h-271v74h371v-74l-280 -348h290v-74h-390v74z" />
    <glyph glyph-name="zacute" unicode="&#x17a;" horiz-adv-x="460" 
d="M40 74l280 348h-271v74h371v-74l-280 -348h290v-74h-390v74zM303 699q10 7 22 7q16 0 26.5 -9.5t10.5 -26.5q0 -12 -9 -23.5t-31 -30.5l-54 -45h-69l81 104q13 17 23 24z" />
    <glyph glyph-name="zcaron" unicode="&#x17e;" horiz-adv-x="460" 
d="M40 74l280 348h-271v74h371v-74l-280 -348h290v-74h-390v74zM180 588l-112 101h94l67 -61l68 61h94l-112 -101q-20 -19 -49 -19q-30 0 -50 19z" />
    <glyph glyph-name="zdotaccent" unicode="&#x17c;" horiz-adv-x="460" 
d="M40 74l280 348h-271v74h371v-74l-280 -348h290v-74h-390v74zM192 606q-16 16 -16 38q0 23 16 38.5t38 15.5q23 0 38.5 -15.5t15.5 -38.5q0 -22 -15.5 -38t-38.5 -16q-22 0 -38 16z" />
    <glyph glyph-name="ordfeminine" unicode="&#xaa;" horiz-adv-x="371" 
d="M80 416.5q-27 22.5 -27 58.5q0 51 49 72t137 28q0 31 -9.5 47.5t-43.5 16.5q-49 0 -57 -35l-61 18q11 31 43 48.5t78 17.5q118 0 118 -118v-82q0 -33 11 -88h-58l-12 39q-12 -23 -39 -34t-57 -11q-45 0 -72 22.5zM222.5 464.5q16.5 19.5 16.5 51.5v11q-67 -8 -91.5 -17.5
t-24.5 -29.5q0 -17 13 -26t36 -9q34 0 50.5 19.5z" />
    <glyph glyph-name="ordmasculine" unicode="&#xba;" horiz-adv-x="380" 
d="M92 432q-40 38 -40 109t40 109t98 38t98 -38t40 -109t-40 -109t-98 -38t-98 38zM240 472.5q19 24.5 19 68.5t-19 68.5t-50 24.5t-50 -24.5t-19 -68.5t19 -68.5t50 -24.5t50 24.5z" />
    <glyph glyph-name="uni0394" unicode="&#x394;" horiz-adv-x="626" 
d="M261 668h105l250 -668h-606zM487 81l-174 492l-174 -492h348z" />
    <glyph glyph-name="uni03A9" unicode="&#x3a9;" horiz-adv-x="674" 
d="M44 81h151v49q-69 38 -110 106t-41 149q0 80 39.5 148t106.5 107.5t147 39.5t147 -39.5t106.5 -107.5t39.5 -148q0 -81 -41 -149t-110 -106v-49h151v-81h-236v173q71 19 117 78t46 134q0 60 -29.5 110.5t-80 80.5t-110.5 30t-110.5 -30t-80 -80.5t-29.5 -110.5
q0 -75 46 -134t117 -78v-173h-236v81z" />
    <glyph glyph-name="uni03BC" unicode="&#x3bc;" horiz-adv-x="550" 
d="M72 496h84v-305q0 -61 22 -95t82 -34t93 41.5t33 120.5v272h84v-368q0 -32 10 -43t40 -11h10v-74h-34q-53 0 -77.5 16.5t-32.5 55.5q-25 -43 -52 -63.5t-78 -20.5q-60 0 -100 53v-203h-84v658z" />
    <glyph glyph-name="pi" unicode="&#x3c0;" horiz-adv-x="586" 
d="M104 414h-84v82h531v-82h-84v-278q0 -28 3.5 -40.5t14 -17t33.5 -4.5h33v-74h-51q-49 0 -73.5 9.5t-34 35.5t-9.5 79v290h-198v-414h-81v414z" />
    <glyph glyph-name="zero" unicode="0" horiz-adv-x="648" 
d="M127.5 77.5q-67.5 89.5 -67.5 257.5t67.5 257.5t196.5 89.5t196.5 -89.5t67.5 -257.5t-67.5 -257.5t-196.5 -89.5t-196.5 89.5zM443 116l-267 385q-25 -63 -25 -166q0 -133 43 -203t130 -70q76 0 119 54zM497 335q0 133 -43 203t-130 70q-71 0 -113 -47l265 -381
q21 63 21 155z" />
    <glyph glyph-name="one" unicode="1" horiz-adv-x="407" 
d="M213 504h-178v67q83 0 134.5 20t71.5 77h56v-668h-84v504z" />
    <glyph glyph-name="two" unicode="2" horiz-adv-x="548" 
d="M311.5 315q90.5 96 90.5 179q0 52 -33 84t-91 32q-52 0 -90.5 -27.5t-49.5 -84.5l-84 24q18 73 78 115.5t148 42.5q95 0 154 -48.5t59 -135.5q0 -74 -46 -143.5t-118.5 -130.5t-186.5 -142h368v-80h-481v78q192 141 282.5 237z" />
    <glyph glyph-name="three" unicode="3" horiz-adv-x="576" 
d="M120.5 33q-57.5 45 -76.5 118l83 24q12 -55 49.5 -86t99.5 -31q67 0 109.5 34t42.5 94q0 73 -54 100.5t-129 27.5h-25v76h25q68 0 116 27.5t48 87.5q0 50 -37 77.5t-93 27.5q-60 0 -96.5 -30.5t-46.5 -81.5l-82 24q18 73 77.5 115.5t149.5 42.5q93 0 154.5 -44t61.5 -130
q0 -52 -30.5 -91.5t-87.5 -57.5q71 -21 105 -66.5t34 -102.5q0 -65 -33.5 -110t-89 -67.5t-120.5 -22.5q-97 0 -154.5 45z" />
    <glyph glyph-name="four" unicode="4" horiz-adv-x="614" 
d="M370 165h-332v79l331 424h85v-424h122v-79h-122v-165h-84v165zM370 244v309l-241 -309h241z" />
    <glyph glyph-name="five" unicode="5" horiz-adv-x="588" 
d="M136 33q-57 45 -77 118l82 24q26 -117 148 -117q41 0 75 19t54 55.5t20 86.5q0 53 -21.5 88.5t-56 53t-72.5 17.5q-48 0 -82 -22.5t-47 -51.5l-82 24l41 340h383v-80h-315l-23 -191q48 53 144 53q59 0 109 -27.5t80 -79.5t30 -123q0 -74 -32.5 -126t-86.5 -79t-118 -27
q-96 0 -153 45z" />
    <glyph glyph-name="six" unicode="6" horiz-adv-x="598" 
d="M125 70.5q-60 82.5 -60 239.5q0 159 63 264.5t198 105.5q70 0 117.5 -29.5t70.5 -77.5l-83 -30q-13 30 -43.5 47t-70.5 17q-76 0 -119 -69t-46 -186q24 42 68 67.5t107 25.5q62 0 111 -29t77 -80.5t28 -117.5q0 -62 -29.5 -115t-83 -84t-122.5 -31q-123 0 -183 82.5z
M413.5 104.5q39.5 42.5 39.5 110.5q0 69 -39.5 111.5t-105.5 42.5t-106 -42.5t-40 -111.5q0 -68 40 -110.5t106 -42.5t105.5 42.5z" />
    <glyph glyph-name="seven" unicode="7" horiz-adv-x="510" 
d="M384 588h-369v80h461v-80l-278 -588h-100z" />
    <glyph glyph-name="eight" unicode="8" horiz-adv-x="615" 
d="M181 12q-56 24 -88.5 70t-32.5 108t33 107t91 69q-28 25 -43.5 60t-15.5 73q0 49 24.5 91t66.5 66.5t91 24.5t91 -24.5t66.5 -66.5t24.5 -91q0 -38 -15.5 -73t-43.5 -60q58 -23 91.5 -68.5t33.5 -107.5t-32.5 -108t-88.5 -70t-127 -24q-70 0 -126 24zM421.5 96.5
q42.5 34.5 42.5 93.5t-42.5 93.5t-114.5 34.5q-71 0 -113.5 -35t-42.5 -93t42.5 -93t113.5 -35q72 0 114.5 34.5zM381.5 425q30.5 31 30.5 74q0 44 -30.5 74.5t-74.5 30.5q-43 0 -74 -30.5t-31 -74.5q0 -43 31 -74t74 -31q44 0 74.5 31z" />
    <glyph glyph-name="nine" unicode="9" horiz-adv-x="595" 
d="M294 204q-65 0 -119 31.5t-86 86t-32 119.5q0 63 31.5 118t86 87.5t121.5 32.5t121.5 -32t86 -85t31.5 -115q0 -58 -23.5 -111.5t-63.5 -119.5l-133 -216h-102l137 210q-28 -6 -56 -6zM373.5 308.5q35.5 20.5 56 55.5t20.5 77q0 41 -21 76.5t-56.5 56t-77.5 20.5
t-77 -20.5t-55.5 -56t-20.5 -76.5t20.5 -76.5t55.5 -56t77 -20.5q43 0 78.5 20.5z" />
    <glyph glyph-name="zero.tf" horiz-adv-x="632" 
d="M119.5 77.5q-67.5 89.5 -67.5 257.5t67.5 257.5t196.5 89.5t196.5 -89.5t67.5 -257.5t-67.5 -257.5t-196.5 -89.5t-196.5 89.5zM435 116l-267 385q-25 -63 -25 -166q0 -133 43 -203t130 -70q76 0 119 54zM489 335q0 133 -43 203t-130 70q-71 0 -113 -47l265 -381
q21 63 21 155z" />
    <glyph glyph-name="one.tf" horiz-adv-x="632" 
d="M109 77h178v427h-178v67q82 0 133.5 20t71.5 77h57v-591h159v-77h-421v77z" />
    <glyph glyph-name="two.tf" horiz-adv-x="632" 
d="M356.5 315q90.5 96 90.5 179q0 52 -33 84t-91 32q-52 0 -90.5 -27.5t-49.5 -84.5l-84 24q18 73 78 115.5t148 42.5q95 0 154 -48.5t59 -135.5q0 -74 -46 -143.5t-118.5 -130.5t-186.5 -142h368v-80h-481v78q192 141 282.5 237z" />
    <glyph glyph-name="three.tf" horiz-adv-x="632" 
d="M162.5 33q-57.5 45 -76.5 118l83 24q12 -55 49.5 -86t99.5 -31q67 0 109.5 34t42.5 94q0 73 -54 100.5t-129 27.5h-25v76h25q68 0 116 27.5t48 87.5q0 50 -37 77.5t-93 27.5q-60 0 -96.5 -30.5t-46.5 -81.5l-82 24q18 73 77.5 115.5t149.5 42.5q93 0 154.5 -44t61.5 -130
q0 -52 -30.5 -91.5t-87.5 -57.5q71 -21 105 -66.5t34 -102.5q0 -65 -33.5 -110t-89 -67.5t-120.5 -22.5q-97 0 -154.5 45z" />
    <glyph glyph-name="four.tf" horiz-adv-x="632" 
d="M385 165h-332v79l331 424h85v-424h122v-79h-122v-165h-84v165zM385 244v309l-241 -309h241z" />
    <glyph glyph-name="five.tf" horiz-adv-x="632" 
d="M168 33q-57 45 -77 118l82 24q26 -117 148 -117q41 0 75 19t54 55.5t20 86.5q0 53 -21.5 88.5t-56 53t-72.5 17.5q-48 0 -82 -22.5t-47 -51.5l-82 24l41 340h383v-80h-315l-23 -191q48 53 144 53q59 0 109 -27.5t80 -79.5t30 -123q0 -74 -32.5 -126t-86.5 -79t-118 -27
q-96 0 -153 45z" />
    <glyph glyph-name="six.tf" horiz-adv-x="632" 
d="M146 70.5q-60 82.5 -60 239.5q0 159 63 264.5t198 105.5q70 0 117.5 -29.5t70.5 -77.5l-83 -30q-13 30 -43.5 47t-70.5 17q-76 0 -119 -69t-46 -186q24 42 68 67.5t107 25.5q62 0 111 -29t77 -80.5t28 -117.5q0 -62 -29.5 -115t-83 -84t-122.5 -31q-123 0 -183 82.5z
M434.5 104.5q39.5 42.5 39.5 110.5q0 69 -39.5 111.5t-105.5 42.5t-106 -42.5t-40 -111.5q0 -68 40 -110.5t106 -42.5t105.5 42.5z" />
    <glyph glyph-name="seven.tf" horiz-adv-x="632" 
d="M455 588h-369v80h461v-80l-278 -588h-100z" />
    <glyph glyph-name="eight.tf" horiz-adv-x="632" 
d="M189 12q-56 24 -88.5 70t-32.5 108t33 107t91 69q-28 25 -43.5 60t-15.5 73q0 49 24.5 91t66.5 66.5t91 24.5t91 -24.5t66.5 -66.5t24.5 -91q0 -38 -15.5 -73t-43.5 -60q58 -23 91.5 -68.5t33.5 -107.5t-32.5 -108t-88.5 -70t-127 -24q-70 0 -126 24zM429.5 96.5
q42.5 34.5 42.5 93.5t-42.5 93.5t-114.5 34.5q-71 0 -113.5 -35t-42.5 -93t42.5 -93t113.5 -35q72 0 114.5 34.5zM389.5 425q30.5 31 30.5 74q0 44 -30.5 74.5t-74.5 30.5q-43 0 -74 -30.5t-31 -74.5q0 -43 31 -74t74 -31q44 0 74.5 31z" />
    <glyph glyph-name="nine.tf" horiz-adv-x="632" 
d="M309 204q-65 0 -119 31.5t-86 86t-32 119.5q0 63 31.5 118t86 87.5t121.5 32.5t121.5 -32t86 -85t31.5 -115q0 -58 -23.5 -111.5t-63.5 -119.5l-133 -216h-102l137 210q-28 -6 -56 -6zM388.5 308.5q35.5 20.5 56 55.5t20.5 77q0 41 -21 76.5t-56.5 56t-77.5 20.5
t-77 -20.5t-55.5 -56t-20.5 -76.5t20.5 -76.5t55.5 -56t77 -20.5q43 0 78.5 20.5z" />
    <glyph glyph-name="fraction" unicode="&#x2044;" horiz-adv-x="586" 
d="M483 668h88l-468 -668h-88z" />
    <glyph glyph-name="onehalf" unicode="&#xbd;" horiz-adv-x="820" 
d="M583 668h88l-467 -668h-89zM136 571h-83v48q77 0 94 49h57v-375h-68v278zM644 187.5q45 47.5 45 90.5q0 26 -15.5 40t-41.5 14q-25 0 -43 -14.5t-22 -44.5l-64 19q11 42 46 66t86 24q54 0 89 -26.5t35 -72.5q0 -54 -47 -108.5t-139 -116.5h194v-58h-275v54
q107 86 152 133.5z" />
    <glyph glyph-name="onequarter" unicode="&#xbc;" horiz-adv-x="816" 
d="M583 668h88l-467 -668h-89zM136 571h-83v48q77 0 94 49h57v-375h-68v278zM630 143v145l-112 -145h112zM630 86h-185v54l186 235h67v-232h65v-57h-65v-86h-68v86z" />
    <glyph glyph-name="threequarters" unicode="&#xbe;" horiz-adv-x="867" 
d="M634 668h88l-467 -668h-88zM101 314.5q-35 24.5 -48 64.5l62 18q18 -56 73 -56q32 0 52.5 16.5t20.5 44.5q0 35 -26.5 50t-83.5 13v53q54 -2 77.5 13t23.5 45q0 25 -18 38.5t-44 13.5q-55 0 -71 -53l-61 18q13 40 48.5 63t87.5 23t89.5 -26t37.5 -76q0 -27 -14.5 -48.5
t-38.5 -34.5q30 -11 46 -35.5t16 -54.5q0 -55 -41 -84.5t-102 -29.5q-51 0 -86 24.5zM681 86h-185v54l186 235h67v-232h65v-57h-65v-86h-68v86zM681 143v145l-112 -145h112z" />
    <glyph glyph-name="uni00B9" unicode="&#xb9;" horiz-adv-x="256" 
d="M136 683h-83v47q77 0 94 49h56v-376h-67v280z" />
    <glyph glyph-name="uni00B2" unicode="&#xb2;" horiz-adv-x="382" 
d="M204 590q46 49 46 92q0 26 -15.5 39.5t-41.5 13.5q-25 0 -42.5 -14t-21.5 -44l-64 18q11 42 45.5 66.5t85.5 24.5q54 0 89 -26.5t35 -73.5q0 -53 -46.5 -107.5t-139.5 -117.5h195v-58h-276v55q105 83 151 132z" />
    <glyph glyph-name="uni00B3" unicode="&#xb3;" horiz-adv-x="383" 
d="M101.5 420.5q-35.5 24.5 -48.5 64.5l62 18q18 -56 77 -56q28 0 48.5 18t20.5 45q0 33 -28 48.5t-82 13.5v54q101 -5 101 57q0 26 -18 39t-44 13q-56 0 -71 -52l-61 18q13 40 48.5 62.5t87.5 22.5t89.5 -25.5t37.5 -75.5q0 -26 -15 -48.5t-38 -34.5q30 -12 46 -37t16 -54
q0 -53 -39.5 -84t-98.5 -31q-55 0 -90.5 24.5z" />
    <glyph glyph-name="uni00A0" unicode="&#xa0;" horiz-adv-x="280" 
 />
    <glyph glyph-name="uni2009" unicode="&#x2009;" horiz-adv-x="140" 
 />
    <glyph glyph-name="period" unicode="." horiz-adv-x="210" 
d="M59 7q-19 19 -19 46t19 46t46 19t46 -19t19 -46t-19 -46t-46 -19t-46 19z" />
    <glyph glyph-name="comma" unicode="," horiz-adv-x="210" 
d="M55.5 11q-15.5 18 -15.5 42q0 26 19 45.5t45 19.5q27 0 46.5 -19.5t19.5 -45.5q0 -12 -6 -28l-62 -158h-55l47 122q-23 4 -38.5 22z" />
    <glyph glyph-name="colon" unicode=":" horiz-adv-x="210" 
d="M59 7q-19 19 -19 46t19 46t46 19t46 -19t19 -46t-19 -46t-46 -19t-46 19zM59 391q-19 19 -19 46t19 46t46 19t46 -19t19 -46t-19 -46t-46 -19t-46 19z" />
    <glyph glyph-name="semicolon" unicode=";" horiz-adv-x="210" 
d="M55.5 11q-15.5 18 -15.5 42q0 26 19 45.5t45 19.5q27 0 46.5 -19.5t19.5 -45.5q0 -12 -6 -28l-62 -158h-55l47 122q-23 4 -38.5 22zM59 391q-19 19 -19 46t19 46t46 19t46 -19t19 -46t-19 -46t-46 -19t-46 19z" />
    <glyph glyph-name="ellipsis" unicode="&#x2026;" horiz-adv-x="670" 
d="M59 7q-19 19 -19 46t19 46t46 19t46 -19t19 -46t-19 -46t-46 -19t-46 19zM289 7q-19 19 -19 46t19 46t46 19t46 -19t19 -46t-19 -46t-46 -19t-46 19zM519 7q-19 19 -19 46t19 46t46 19t46 -19t19 -46t-19 -46t-46 -19t-46 19z" />
    <glyph glyph-name="exclam" unicode="!" horiz-adv-x="286" 
d="M98 496v172h90v-172l-19 -301h-52zM97 7q-19 19 -19 46t19 46t46 19t46 -19t19 -46t-19 -46t-46 -19t-46 19z" />
    <glyph glyph-name="exclamdown" unicode="&#xa1;" horiz-adv-x="286" 
d="M98 2l19 301h52l19 -301v-172h-90v172zM97 399q-19 19 -19 46t19 46t46 19t46 -19t19 -46t-19 -46t-46 -19t-46 19z" />
    <glyph glyph-name="question" unicode="?" horiz-adv-x="480" 
d="M181.5 286.5q9.5 24.5 34 48t70.5 52.5q43 27 64.5 55.5t21.5 65.5q0 47 -34.5 74.5t-90.5 27.5q-62 0 -94.5 -31.5t-40.5 -77.5l-82 23q15 72 75 114t146 42q55 0 102.5 -18t77 -55t29.5 -91q0 -110 -125 -188q-48 -29 -62.5 -49.5t-14.5 -54.5v-34h-86v37
q0 35 9.5 59.5zM169 7q-19 19 -19 46t19 46t46 19t46 -19t19 -46t-19 -46t-46 -19t-46 19z" />
    <glyph glyph-name="questiondown" unicode="&#xbf;" horiz-adv-x="450" 
d="M126.5 -164q-47.5 18 -77 55t-29.5 91q0 110 125 188q48 29 62.5 49.5t14.5 54.5v34h86v-37q0 -35 -9.5 -59.5t-34 -48t-70.5 -52.5q-43 -27 -64.5 -55.5t-21.5 -65.5q0 -47 34.5 -74.5t90.5 -27.5q62 0 94.5 31.5t40.5 77.5l82 -23q-15 -72 -75 -114t-146 -42
q-55 0 -102.5 18zM219 399q-19 19 -19 46t19 46t46 19t46 -19t19 -46t-19 -46t-46 -19t-46 19z" />
    <glyph glyph-name="periodcentered" unicode="&#xb7;" horiz-adv-x="240" 
d="M74 201q-19 19 -19 46t19 46t46 19t46 -19t19 -46t-19 -46t-46 -19t-46 19z" />
    <glyph glyph-name="bullet" unicode="&#x2022;" horiz-adv-x="438" 
d="M136 110.5q-38 22.5 -60.5 60.5t-22.5 83t22.5 83t60.5 60.5t83 22.5t83 -22.5t60.5 -60.5t22.5 -83t-22.5 -83t-60.5 -60.5t-83 -22.5t-83 22.5z" />
    <glyph glyph-name="asterisk" unicode="*" horiz-adv-x="485" 
d="M117 378l76 105l-123 38l19 58l123 -40v129h59v-129l123 40l19 -58l-125 -38l77 -105l-47 -35l-78 104l-75 -104z" />
    <glyph glyph-name="numbersign" unicode="#" horiz-adv-x="651" 
d="M160 172h-124l11 81h124l23 162h-124l11 81h124l24 172h82l-24 -172h123l24 172h82l-24 -172h123l-11 -81h-124l-22 -162h123l-11 -81h-124l-24 -172h-82l24 172h-123l-24 -172h-82zM376 253l22 162h-123l-22 -162h123z" />
    <glyph glyph-name="slash" unicode="/" horiz-adv-x="387" 
d="M284 708h83l-264 -798h-83z" />
    <glyph glyph-name="backslash" unicode="\" horiz-adv-x="387" 
d="M284 -90l-264 798h83l264 -798h-83z" />
    <glyph glyph-name="hyphen" unicode="-" horiz-adv-x="362" 
d="M35 289h292v-81h-292v81z" />
    <glyph glyph-name="endash" unicode="&#x2013;" horiz-adv-x="504" 
d="M53 287h398v-79h-398v79z" />
    <glyph glyph-name="emdash" unicode="&#x2014;" horiz-adv-x="824" 
d="M53 287h718v-79h-718v79z" />
    <glyph glyph-name="underscore" unicode="_" horiz-adv-x="372" 
d="M-2 0h376v-79h-376v79z" />
    <glyph glyph-name="parenleft" unicode="(" horiz-adv-x="299" 
d="M88.5 46.5q-33.5 112.5 -33.5 226.5t33.5 226.5t94.5 208.5h81q-62 -96 -96 -208.5t-34 -226.5t34 -226.5t96 -208.5h-81q-61 96 -94.5 208.5z" />
    <glyph glyph-name="parenright" unicode=")" horiz-adv-x="299" 
d="M131 47.5q34 112.5 34 226.5t-34 226.5t-96 208.5h81q61 -96 94.5 -208.5t33.5 -226.5t-33.5 -226.5t-94.5 -208.5h-81q62 96 96 208.5z" />
    <glyph glyph-name="braceleft" unicode="{" horiz-adv-x="344" 
d="M181 -150q-27 12 -37.5 37t-10.5 68v188q0 50 -19.5 70t-75.5 24v72q56 4 75.5 24t19.5 70v188q0 43 10.5 68t37.5 37t77 12h52v-71h-46q-27 0 -37 -9t-10 -33v-193q0 -58 -17.5 -86t-58.5 -40v-6q41 -12 58.5 -40t17.5 -86v-193q0 -24 10 -33t37 -9h46v-71h-52
q-50 0 -77 12z" />
    <glyph glyph-name="braceright" unicode="}" horiz-adv-x="344" 
d="M34 -91h46q27 0 37 9t10 33v193q0 58 17.5 86t58.5 40v6q-41 12 -58.5 40t-17.5 86v193q0 24 -10 33t-37 9h-46v71h52q50 0 77 -12t37.5 -37t10.5 -68v-188q0 -50 19.5 -70t75.5 -24v-72q-56 -4 -75.5 -24t-19.5 -70v-188q0 -43 -10.5 -68t-37.5 -37t-77 -12h-52v71z" />
    <glyph glyph-name="bracketleft" unicode="[" horiz-adv-x="317" 
d="M78 708h206v-74h-125v-722h125v-74h-206v870z" />
    <glyph glyph-name="bracketright" unicode="]" horiz-adv-x="344" 
d="M60 -88h125v722h-125v74h206v-870h-206v74z" />
    <glyph glyph-name="quotesinglbase" unicode="&#x201a;" horiz-adv-x="236" 
d="M68.5 11q-15.5 18 -15.5 42q0 26 19 45.5t45 19.5q27 0 46.5 -19.5t19.5 -45.5q0 -12 -6 -28l-62 -158h-55l47 122q-23 4 -38.5 22z" />
    <glyph glyph-name="quotedblbase" unicode="&#x201e;" horiz-adv-x="399" 
d="M231.5 11q-15.5 18 -15.5 42q0 26 19 45.5t45 19.5q27 0 46.5 -19.5t19.5 -45.5q0 -12 -6 -28l-62 -158h-55l47 122q-23 4 -38.5 22zM68.5 11q-15.5 18 -15.5 42q0 26 19 45.5t45 19.5q27 0 46.5 -19.5t19.5 -45.5q0 -12 -6 -28l-62 -158h-55l47 122q-23 4 -38.5 22z" />
    <glyph glyph-name="quotedblleft" unicode="&#x201c;" horiz-adv-x="399" 
d="M235.5 436.5q-19.5 19.5 -19.5 45.5q0 12 6 28l62 158h55l-47 -122q23 -4 38.5 -22t15.5 -42q0 -26 -19 -45.5t-45 -19.5q-27 0 -46.5 19.5zM72.5 436.5q-19.5 19.5 -19.5 45.5q0 12 6 28l62 158h55l-47 -122q23 -4 38.5 -22t15.5 -42q0 -26 -19 -45.5t-45 -19.5
q-27 0 -46.5 19.5z" />
    <glyph glyph-name="quotedblright" unicode="&#x201d;" horiz-adv-x="399" 
d="M231.5 573q-15.5 18 -15.5 42q0 26 19 45.5t45 19.5q27 0 46.5 -19.5t19.5 -45.5q0 -12 -6 -28l-62 -158h-55l47 122q-23 4 -38.5 22zM68.5 573q-15.5 18 -15.5 42q0 26 19 45.5t45 19.5q27 0 46.5 -19.5t19.5 -45.5q0 -12 -6 -28l-62 -158h-55l47 122q-23 4 -38.5 22z
" />
    <glyph glyph-name="quoteleft" unicode="&#x2018;" horiz-adv-x="236" 
d="M72.5 436.5q-19.5 19.5 -19.5 45.5q0 12 6 28l62 158h55l-47 -122q23 -4 38.5 -22t15.5 -42q0 -26 -19 -45.5t-45 -19.5q-27 0 -46.5 19.5z" />
    <glyph glyph-name="quoteright" unicode="&#x2019;" horiz-adv-x="236" 
d="M68.5 573q-15.5 18 -15.5 42q0 26 19 45.5t45 19.5q27 0 46.5 -19.5t19.5 -45.5q0 -12 -6 -28l-62 -158h-55l47 122q-23 4 -38.5 22z" />
    <glyph glyph-name="guillemotleft" unicode="&#xab;" horiz-adv-x="562" 
d="M262 250l148 210h99l-149 -210l149 -210h-99zM53 250l148 210h99l-149 -210l149 -210h-99z" />
    <glyph glyph-name="guillemotright" unicode="&#xbb;" horiz-adv-x="562" 
d="M411 250l-149 210h99l148 -210l-148 -210h-99zM202 250l-149 210h99l148 -210l-148 -210h-99z" />
    <glyph glyph-name="guilsinglleft" unicode="&#x2039;" horiz-adv-x="353" 
d="M53 250l148 210h99l-149 -210l149 -210h-99z" />
    <glyph glyph-name="guilsinglright" unicode="&#x203a;" horiz-adv-x="353" 
d="M202 250l-149 210h99l148 -210l-148 -210h-99z" />
    <glyph glyph-name="quotedbl" unicode="&#x22;" horiz-adv-x="301" 
d="M181 668h80l-14 -221h-52zM40 668h80l-14 -221h-52z" />
    <glyph glyph-name="quotesingle" unicode="'" horiz-adv-x="160" 
d="M40 668h80l-14 -221h-52z" />
    <glyph glyph-name="florin" unicode="&#x192;" horiz-adv-x="324" 
d="M25 -165v75q15 -3 26 -3q58 0 58 69v453h-84v67h84v74q0 54 10.5 82.5t38.5 41t84 12.5h54v-71h-52q-32 0 -41.5 -12.5t-9.5 -51.5v-75h103v-67h-103v-456q0 -79 -31.5 -112.5t-81.5 -33.5q-26 0 -55 8z" />
    <glyph glyph-name="musicalnote" unicode="&#x266a;" horiz-adv-x="632" 
d="M125 21q-30 31 -30 75t31 75t75 31q34 0 61 -19v485h45q3 -31 18 -56t37 -45.5t67 -56.5q56 -45 87 -86t31 -96q0 -49 -49 -116l-5 2q-13 81 -62.5 135t-123.5 81v-314q0 -60 -30.5 -93t-78.5 -33q-43 0 -73 31z" />
    <glyph glyph-name="at" unicode="@" horiz-adv-x="778" 
d="M225.5 -53q-81.5 43 -131.5 123t-50 185q0 99 47 178.5t128 125t177 45.5q81 0 159 -36.5t128.5 -108.5t50.5 -173q0 -73 -22.5 -120t-57.5 -68.5t-74 -21.5q-33 0 -62 16.5t-40 40.5q-24 -32 -54 -45t-67 -13t-70.5 19t-55 56t-21.5 88q0 105 58.5 153t144.5 48
q57 0 119 -20v-222q0 -27 16 -41.5t40 -14.5q41 0 62.5 43t21.5 102q0 73 -37 131.5t-100 91.5t-139 33q-79 0 -145 -36.5t-104.5 -102t-38.5 -148.5q0 -87 40.5 -152.5t106.5 -101t141 -35.5q73 0 136 35v-69q-63 -28 -134 -28q-91 0 -172.5 43zM434 172q27 31 27 86v111
q-34 4 -55 4q-51 0 -86.5 -30.5t-35.5 -109.5q0 -43 26 -67.5t59 -24.5q38 0 65 31z" />
    <glyph glyph-name="ampersand" unicode="&#x26;" horiz-adv-x="731" 
d="M168.5 13q-52.5 25 -81 68.5t-28.5 99.5q0 75 46 127t127 79q-37 38 -55.5 72.5t-18.5 72.5q0 40 22.5 74.5t63.5 55t95 20.5q43 0 83.5 -16.5t66 -50t25.5 -79.5q0 -116 -140 -173l136 -144q27 57 33 131h87q-15 -117 -61 -193l149 -157h-119l-82 87q-87 -99 -228 -99
q-68 0 -120.5 25zM463 143l-181 191q-133 -47 -133 -149q0 -56 41.5 -89.5t98.5 -33.5q105 0 174 81zM403.5 463q28.5 29 28.5 68q0 33 -27.5 55.5t-66.5 22.5q-38 0 -64 -19t-26 -53q0 -29 16.5 -53t58.5 -69q52 19 80.5 48z" />
    <glyph glyph-name="paragraph" unicode="&#xb6;" horiz-adv-x="509" 
d="M78.5 359.5q-42.5 51.5 -42.5 119.5q0 51 25.5 94.5t69 69t94.5 25.5h256v-67h-40v-763h-81v763h-94v-763h-81v456q-64 14 -106.5 65.5z" />
    <glyph glyph-name="section" unicode="&#xa7;" horiz-adv-x="528" 
d="M136 -139q-51 34 -69 95l83 24q21 -83 113 -83q44 0 73 21t29 52q0 29 -22.5 48.5t-76.5 48.5l-100 52q-72 38 -103.5 74.5t-31.5 88.5q0 83 110 138q-33 26 -47 52t-14 59q0 44 25.5 78t68.5 52.5t94 18.5q74 0 125 -34t69 -95l-83 -24q-21 83 -113 83q-44 0 -73 -21
t-29 -52q0 -29 22.5 -48.5t76.5 -48.5l100 -52q72 -38 103.5 -74.5t31.5 -88.5q0 -83 -110 -138q33 -26 47 -52t14 -59q0 -44 -25.5 -78t-68.5 -52.5t-94 -18.5q-74 0 -125 34zM392.5 168q22.5 22 22.5 52q0 29 -23.5 51t-72.5 49l-116 61q-44 -20 -66.5 -42t-22.5 -52
q0 -29 23.5 -51t72.5 -49l116 -61q44 20 66.5 42z" />
    <glyph glyph-name="copyright" unicode="&#xa9;" horiz-adv-x="798" 
d="M225 33.5q-80 46.5 -126.5 126.5t-46.5 174t46.5 174t126.5 126.5t174 46.5t174 -46.5t126.5 -126.5t46.5 -174t-46.5 -174t-126.5 -126.5t-174 -46.5t-174 46.5zM270.5 194.5q-46.5 51.5 -46.5 141.5q0 88 48.5 139t130.5 51q52 0 88.5 -22t56.5 -60l-67 -25
q-24 46 -80 46q-45 0 -71.5 -32t-26.5 -97q0 -66 26.5 -98.5t71.5 -32.5q60 0 83 42l66 -24q-21 -36 -58.5 -58t-90.5 -22q-84 0 -130.5 51.5zM542.5 87q65.5 38 103.5 103.5t38 143.5t-38 143.5t-103.5 103.5t-143.5 38t-143.5 -38t-103.5 -103.5t-38 -143.5t38 -143.5
t103.5 -103.5t143.5 -38t143.5 38z" />
    <glyph glyph-name="registered" unicode="&#xae;" horiz-adv-x="798" 
d="M225 33.5q-80 46.5 -126.5 126.5t-46.5 174t46.5 174t126.5 126.5t174 46.5t174 -46.5t126.5 -126.5t46.5 -174t-46.5 -174t-126.5 -126.5t-174 -46.5t-174 46.5zM542.5 87q65.5 38 103.5 103.5t38 143.5t-38 143.5t-103.5 103.5t-143.5 38t-143.5 -38t-103.5 -103.5
t-38 -143.5t38 -143.5t103.5 -103.5t143.5 -38t143.5 38zM264 529h132q75 0 114.5 -27t39.5 -89q0 -42 -25.5 -68t-62.5 -35l108 -148h-86l-102 138h-42v-138h-76v367zM457.5 371.5q17.5 13.5 17.5 40.5q0 32 -20 44t-61 12h-54v-110h59q41 0 58.5 13.5z" />
    <glyph glyph-name="trademark" unicode="&#x2122;" horiz-adv-x="874" 
d="M394 668h108l93 -280l93 280h108v-365h-67v283l-98 -283h-72l-98 283v-283h-67v365zM162 608h-118v60h303v-60h-118v-305h-67v305z" />
    <glyph glyph-name="degree" unicode="&#xb0;" horiz-adv-x="352" 
d="M108 426.5q-31 18.5 -49.5 49.5t-18.5 68t18.5 68t49.5 49.5t68 18.5t68 -18.5t49.5 -49.5t18.5 -68t-18.5 -68t-49.5 -49.5t-68 -18.5t-68 18.5zM228 492.5q21 21.5 21 51.5q0 31 -21 52t-52 21q-30 0 -51.5 -21t-21.5 -52q0 -30 21.5 -51.5t51.5 -21.5q31 0 52 21.5z
" />
    <glyph glyph-name="bar" unicode="|" horiz-adv-x="237" 
d="M78 838h81v-1000h-81v1000z" />
    <glyph glyph-name="brokenbar" unicode="&#xa6;" horiz-adv-x="237" 
d="M78 233h81v-395h-81v395zM78 838h81v-395h-81v395z" />
    <glyph glyph-name="dagger" unicode="&#x2020;" horiz-adv-x="541" 
d="M230 416h-190v80h190v172h81v-172h190v-80h-190v-416h-81v416z" />
    <glyph glyph-name="uni2113" unicode="&#x2113;" horiz-adv-x="450" 
d="M152 27.5q-33 39.5 -33 128.5v32l-66 -50v89l66 51v229q0 85 34.5 129t110.5 44q62 0 96 -39t34 -103q0 -84 -45.5 -149t-144.5 -138v-100q0 -51 18 -70.5t49 -19.5q45 0 89 39l37 -58q-26 -23 -61.5 -38.5t-74.5 -15.5q-76 0 -109 39.5zM312 535q0 75 -53 75
q-30 0 -42.5 -20t-12.5 -72v-174q108 76 108 191z" />
    <glyph glyph-name="daggerdbl" unicode="&#x2021;" horiz-adv-x="541" 
d="M230 172h-190v79h190v165h-190v80h190v172h81v-172h190v-80h-190v-165h190v-79h-190v-172h-81v172z" />
    <glyph glyph-name="estimated" unicode="&#x212e;" horiz-adv-x="622" 
d="M188 19q-59 31 -97 92t-38 145q0 60 33 117.5t92 94t133 36.5q70 0 129 -34.5t94 -93.5t35 -128h-410v-170q31 -28 70 -43t82 -15q50 0 94.5 20.5t75.5 56.5l33 -10q-36 -46 -89 -72.5t-114 -26.5q-64 0 -123 31zM463 279v134q-30 28 -69.5 43.5t-82.5 15.5
q-44 0 -83 -15.5t-69 -43.5v-134h304z" />
    <glyph glyph-name="cent" unicode="&#xa2;" horiz-adv-x="485" 
d="M89 72q-53 70 -53 175q0 101 53.5 170.5t144.5 83.5v85h50v-82q61 -2 107.5 -33t71.5 -78l-77 -28q-15 27 -41.5 44t-60.5 21v-368q35 4 61.5 21t42.5 44l77 -28q-26 -46 -74 -76.5t-107 -34.5v-78h-50v80q-92 12 -145 82zM157 367q-30 -45 -30 -119q0 -75 30 -121
t77 -60v358q-47 -13 -77 -58z" />
    <glyph glyph-name="currency" unicode="&#xa4;" horiz-adv-x="580" 
d="M53 120l66 66q-23 29 -35 64t-12 71t12 71t35 64l-66 66l36 36l66 -66q59 47 135 47t135 -47l66 66l36 -36l-66 -66q23 -29 35 -64t12 -71t-12 -71t-35 -64l66 -66l-36 -36l-66 66q-59 -47 -135 -47t-135 47l-66 -66zM361.5 198q32.5 19 51.5 52t19 71t-19 71t-51.5 52
t-71.5 19t-71.5 -19t-51.5 -52t-19 -71t19 -71t51.5 -52t71.5 -19t71.5 19z" />
    <glyph glyph-name="dollar" unicode="$" horiz-adv-x="592" 
d="M123.5 35q-62.5 40 -85.5 111l83 31q13 -47 53.5 -75.5t91.5 -35.5v245l-33 8q-86 20 -132.5 61.5t-46.5 113.5q0 51 28.5 91t77 64t106.5 29v80h50v-78q71 -4 128.5 -35.5t85.5 -89.5l-83 -31q-17 34 -52 54.5t-79 24.5v-218l30 -7q105 -24 156.5 -66.5t51.5 -122.5
q0 -58 -32 -102t-86 -69t-120 -29v-79h-50v79q-80 6 -142.5 46zM422.5 100q41.5 31 41.5 86q0 29 -12 49t-42.5 35t-86.5 28l-7 2v-235q65 4 106.5 35zM178.5 569q-34.5 -27 -34.5 -72q0 -71 108 -97l14 -3v205q-53 -6 -87.5 -33z" />
    <glyph glyph-name="Euro" unicode="&#x20ac;" horiz-adv-x="664" 
d="M197 55.5q-69 67.5 -89 184.5h-93l28 51h59q-2 36 -2 53q0 22 1 33h-86l28 51h65q22 118 97.5 185t181.5 67q78 0 140.5 -40t95.5 -112l-78 -28q-22 47 -63 74t-100 27q-73 0 -120 -47t-64 -126h248l-28 -51h-228q-1 -14 -1 -43q0 -28 1 -43h181l-28 -51h-145
q17 -79 64.5 -126t122.5 -47q58 0 99.5 26.5t64.5 73.5l77 -28q-33 -73 -97.5 -112t-148.5 -39q-114 0 -183 67.5z" />
    <glyph glyph-name="uni20B9" unicode="&#x20b9;" horiz-adv-x="554" 
d="M73 290v52h74q75 0 117.5 24t50.5 76h-242v51h242q-9 50 -52 75t-116 25h-74v75h427v-51h-167q65 -43 75 -124h92v-51h-92q-8 -74 -60 -115.5t-141 -52.5l283 -274h-117z" />
    <glyph glyph-name="sterling" unicode="&#xa3;" horiz-adv-x="610" 
d="M167.5 116.5q42.5 43.5 42.5 109.5q0 43 -23 92h-109v51h86q-22 45 -33 76t-11 66q0 81 63 125t158 44q83 0 138 -37t75 -102l-83 -25q-13 49 -48.5 71t-85.5 22q-58 0 -93 -26.5t-35 -74.5q0 -31 11 -59t37 -80h204v-51h-181q18 -40 18 -80q0 -48 -26 -85t-70 -63
q31 12 60 12q19 0 36.5 -4.5t40.5 -12.5q29 -10 48 -14.5t43 -4.5q51 0 109 25l25 -73q-68 -30 -125 -30q-25 0 -45.5 4.5t-53.5 14.5q-29 9 -51 14t-46 5q-59 0 -134 -38l-28 67q44 18 86.5 61.5z" />
    <glyph glyph-name="yen" unicode="&#xa5;" horiz-adv-x="575" 
d="M241 86h-150v51h150v86h-150v51h141l-232 394h103l185 -323l184 323h103l-232 -394h141v-51h-149v-86h149v-51h-149v-86h-94v86z" />
    <glyph glyph-name="uni2219" unicode="&#x2219;" horiz-adv-x="230" 
d="M69 211q-19 19 -19 46t19 46t46 19t46 -19t19 -46t-19 -46t-46 -19t-46 19z" />
    <glyph glyph-name="uni2215" unicode="&#x2215;" horiz-adv-x="598" 
d="M483 668h100l-468 -668h-100z" />
    <glyph glyph-name="plus" unicode="+" horiz-adv-x="606" 
d="M263 208h-208v80h208v208h80v-208h208v-80h-208v-208h-80v208z" />
    <glyph glyph-name="minus" unicode="&#x2212;" horiz-adv-x="606" 
d="M55 288h496v-79h-496v79z" />
    <glyph glyph-name="multiply" unicode="&#xd7;" horiz-adv-x="532" 
d="M55 97l154 153l-154 154l57 58l154 -154l154 154l57 -58l-153 -154l153 -153l-57 -58l-154 154l-154 -154z" />
    <glyph glyph-name="divide" unicode="&#xf7;" horiz-adv-x="606" 
d="M55 288h496v-80h-496v80zM257 33q-19 19 -19 46q0 26 19 45t46 19t45.5 -19t18.5 -45q0 -27 -18.5 -46t-45.5 -19t-46 19zM257 371.5q-19 18.5 -19 45.5t19 46t46 19t45.5 -19t18.5 -46t-18.5 -45.5t-45.5 -18.5t-46 18.5z" />
    <glyph glyph-name="equal" unicode="=" horiz-adv-x="628" 
d="M66 386h496v-79h-496v79zM66 200h496v-79h-496v79z" />
    <glyph glyph-name="notequal" unicode="&#x2260;" horiz-adv-x="628" 
d="M175 121h-109v79h165l74 108h-239v79h295l77 109h99l-76 -109h101v-79h-157l-75 -108h232v-79h-287l-85 -121h-100z" />
    <glyph glyph-name="greater" unicode="&#x3e;" horiz-adv-x="553" 
d="M40 90l368 158l-368 158v90l473 -213v-70l-473 -213v90z" />
    <glyph glyph-name="less" unicode="&#x3c;" horiz-adv-x="553" 
d="M40 213v70l473 213v-90l-368 -158l368 -158v-90z" />
    <glyph glyph-name="greaterequal" unicode="&#x2265;" horiz-adv-x="579" 
d="M53 190l368 112l-368 112v91l473 -168v-70l-473 -167v90zM53 80h473v-80h-473v80z" />
    <glyph glyph-name="lessequal" unicode="&#x2264;" horiz-adv-x="579" 
d="M53 267v70l473 168v-91l-368 -112l368 -112v-90zM53 80h473v-80h-473v80z" />
    <glyph glyph-name="plusminus" unicode="&#xb1;" horiz-adv-x="579" 
d="M250 270h-197v80h197v146h80v-146h196v-80h-196v-146h-80v146zM53 79h473v-79h-473v79z" />
    <glyph glyph-name="approxequal" unicode="&#x2248;" horiz-adv-x="554" 
d="M166 229q26 0 51.5 -8t68.5 -26q32 -14 55 -22t43 -8q57 0 61 69l68 -19q-15 -125 -125 -125q-26 0 -51.5 8t-68.5 26q-32 14 -55 22t-43 8q-57 0 -61 -69l-68 19q15 125 125 125zM166 422q26 0 51.5 -8t68.5 -26q32 -14 55 -22t43 -8q57 0 61 69l68 -19
q-15 -125 -125 -125q-26 0 -51.5 8t-68.5 26q-32 14 -55 22t-43 8q-57 0 -61 -69l-68 19q15 125 125 125z" />
    <glyph glyph-name="logicalnot" unicode="&#xac;" horiz-adv-x="602" 
d="M468 317h-415v79h496v-306h-81v227z" />
    <glyph glyph-name="asciitilde" unicode="~" horiz-adv-x="555" 
d="M167 329q28 0 55.5 -9t65.5 -25q32 -14 54.5 -21.5t42.5 -7.5q58 0 61 75l69 -19q-15 -132 -126 -132q-27 0 -55 9t-66 25q-32 14 -54.5 21.5t-42.5 7.5q-58 0 -61 -75l-69 19q15 132 126 132z" />
    <glyph glyph-name="asciicircum" unicode="^" horiz-adv-x="552" 
d="M238 668h76l185 -357h-89l-134 258l-134 -258h-89z" />
    <glyph glyph-name="infinity" unicode="&#x221e;" horiz-adv-x="774" 
d="M97.5 146.5q-44.5 42.5 -44.5 109.5t44.5 109.5t115.5 42.5q51 0 92.5 -25t81.5 -69q40 44 81.5 69t92.5 25q71 0 115.5 -42.5t44.5 -109.5t-44.5 -109.5t-115.5 -42.5q-51 0 -92.5 25t-81.5 69q-40 -44 -81.5 -69t-92.5 -25q-71 0 -115.5 42.5zM277 197q28 17 62 59
q-34 42 -62 59t-60 17q-36 0 -59.5 -22t-23.5 -54t23.5 -54t59.5 -22q32 0 60 17zM616.5 202q23.5 22 23.5 54t-23.5 54t-59.5 22q-32 0 -60 -17t-62 -59q34 -42 62 -59t60 -17q36 0 59.5 22z" />
    <glyph glyph-name="integral" unicode="&#x222b;" horiz-adv-x="458" 
d="M74.5 -154.5q-23.5 18.5 -23.5 45.5q0 21 14 35.5t37 14.5t37 -14.5t14 -37.5q0 -9 -3 -18q34 10 35 96l4 510q1 115 36.5 159.5t94.5 44.5q40 0 63.5 -18t23.5 -45q0 -21 -14 -35.5t-37 -14.5q-24 0 -37.5 14t-13.5 38q0 9 3 18q-34 -10 -35 -96l-5 -510
q-1 -115 -36 -160t-94 -45q-40 0 -63.5 18.5z" />
    <glyph glyph-name="product" unicode="&#x220f;" horiz-adv-x="585" 
d="M53 668h479v-830h-82v749h-316v-749h-81v830z" />
    <glyph glyph-name="summation" unicode="&#x2211;" horiz-adv-x="587" 
d="M53 -81l246 335l-246 333v81h481v-81h-380l245 -333l-245 -335h380v-81h-481v81z" />
    <glyph glyph-name="radical" unicode="&#x221a;" horiz-adv-x="582" 
d="M159 145h-106v80h162l103 -263l123 706h88l-151 -830h-99z" />
    <glyph glyph-name="partialdiff" unicode="&#x2202;" horiz-adv-x="583" 
d="M176.5 15q-54.5 27 -88.5 83t-34 138t33.5 138t87.5 83t114 27q99 0 145 -65q-35 180 -253 180q-26 0 -38 -1v82q144 0 229 -44.5t121 -130t36 -216.5q0 -160 -68 -230.5t-169 -70.5q-61 0 -115.5 27zM364 80q34 19 55 58.5t21 97.5q0 57 -21 96.5t-55 58.5t-72 19
t-72 -19t-55.5 -58.5t-21.5 -96.5q0 -58 21.5 -97.5t55.5 -58.5t72 -19t72 19z" />
    <glyph glyph-name="percent" unicode="%" horiz-adv-x="919" 
d="M648 668h88l-468 -668h-88zM126.5 340.5q-41.5 24.5 -66 66t-24.5 91.5t24.5 91.5t66 66t91.5 24.5t91.5 -24.5t66 -66t24.5 -91.5t-24.5 -91.5t-66 -66t-91.5 -24.5t-91.5 24.5zM294.5 421.5q31.5 31.5 31.5 76.5t-31.5 76.5t-76.5 31.5t-76.5 -31.5t-31.5 -76.5
t31.5 -76.5t76.5 -31.5t76.5 31.5zM609.5 12.5q-41.5 24.5 -66 66t-24.5 91.5t24.5 91.5t66 66t91.5 24.5t91.5 -24.5t66 -66t24.5 -91.5t-24.5 -91.5t-66 -66t-91.5 -24.5t-91.5 24.5zM777.5 93.5q31.5 31.5 31.5 76.5t-31.5 76.5t-76.5 31.5t-76.5 -31.5t-31.5 -76.5
t31.5 -76.5t76.5 -31.5t76.5 31.5z" />
    <glyph glyph-name="perthousand" unicode="&#x2030;" horiz-adv-x="1325" 
d="M648 668h88l-468 -668h-88zM126.5 340.5q-41.5 24.5 -66 66t-24.5 91.5t24.5 91.5t66 66t91.5 24.5t91.5 -24.5t66 -66t24.5 -91.5t-24.5 -91.5t-66 -66t-91.5 -24.5t-91.5 24.5zM294.5 421.5q31.5 31.5 31.5 76.5t-31.5 76.5t-76.5 31.5t-76.5 -31.5t-31.5 -76.5
t31.5 -76.5t76.5 -31.5t76.5 31.5zM609.5 12.5q-41.5 24.5 -66 66t-24.5 91.5t24.5 91.5t66 66t91.5 24.5t91.5 -24.5t66 -66t24.5 -91.5t-24.5 -91.5t-66 -66t-91.5 -24.5t-91.5 24.5zM777.5 93.5q31.5 31.5 31.5 76.5t-31.5 76.5t-76.5 31.5t-76.5 -31.5t-31.5 -76.5
t31.5 -76.5t76.5 -31.5t76.5 31.5zM1015.5 12.5q-41.5 24.5 -66 66t-24.5 91.5t24.5 91.5t66 66t91.5 24.5t91.5 -24.5t66 -66t24.5 -91.5t-24.5 -91.5t-66 -66t-91.5 -24.5t-91.5 24.5zM1183.5 93.5q31.5 31.5 31.5 76.5t-31.5 76.5t-76.5 31.5t-76.5 -31.5t-31.5 -76.5
t31.5 -76.5t76.5 -31.5t76.5 31.5z" />
    <glyph glyph-name="lozenge" unicode="&#x25ca;" horiz-adv-x="561" 
d="M53 315l228 388l227 -388l-227 -388zM421 315l-140 239l-141 -239l141 -239z" />
    <glyph glyph-name="uni0308" unicode="&#x308;" 
d="M236 606q-16 16 -16 38q0 23 16 38.5t38 15.5q23 0 38.5 -15.5t15.5 -38.5q0 -22 -15.5 -38t-38.5 -16q-22 0 -38 16zM56 606q-16 16 -16 38q0 23 16 38.5t38 15.5q23 0 38.5 -15.5t15.5 -38.5q0 -22 -15.5 -38t-38.5 -16q-22 0 -38 16z" />
    <glyph glyph-name="uni0308.case" 
d="M236 756q-16 16 -16 38q0 23 16 38.5t38 15.5q23 0 38.5 -15.5t15.5 -38.5q0 -22 -15.5 -38t-38.5 -16q-22 0 -38 16zM56 756q-16 16 -16 38q0 23 16 38.5t38 15.5q23 0 38.5 -15.5t15.5 -38.5q0 -22 -15.5 -38t-38.5 -16q-22 0 -38 16z" />
    <glyph glyph-name="uni0307" unicode="&#x307;" 
d="M56 606q-16 16 -16 38q0 23 16 38.5t38 15.5q23 0 38.5 -15.5t15.5 -38.5q0 -22 -15.5 -38t-38.5 -16q-22 0 -38 16z" />
    <glyph glyph-name="uni0307.case" 
d="M56 756q-16 16 -16 38q0 23 16 38.5t38 15.5q23 0 38.5 -15.5t15.5 -38.5q0 -22 -15.5 -38t-38.5 -16q-22 0 -38 16z" />
    <glyph glyph-name="uni0307.large" 
d="M58.5 608.5q-18.5 18.5 -18.5 43.5q0 26 18.5 44t43.5 18q26 0 44 -18t18 -44q0 -25 -18 -43.5t-44 -18.5q-25 0 -43.5 18.5z" />
    <glyph glyph-name="gravecomb" unicode="&#x300;" 
d="M49 646.5q-9 11.5 -9 23.5q0 17 10.5 26.5t26.5 9.5q12 0 22 -7t23 -24l81 -104h-69l-54 45q-22 19 -31 30.5z" />
    <glyph glyph-name="gravecomb.case" 
d="M48.5 804q-8.5 11 -8.5 24q0 16 10.5 25.5t26.5 9.5q10 0 20.5 -5.5t24.5 -19.5l91 -94h-76l-57 35q-23 14 -31.5 25z" />
    <glyph glyph-name="acutecomb" unicode="&#x301;" 
d="M144 699q10 7 22 7q16 0 26.5 -9.5t10.5 -26.5q0 -12 -9 -23.5t-31 -30.5l-54 -45h-69l81 104q13 17 23 24z" />
    <glyph glyph-name="acutecomb.case" 
d="M155.5 857.5q10.5 5.5 20.5 5.5q16 0 26.5 -9.5t10.5 -25.5q0 -13 -8.5 -24t-31.5 -25l-57 -35h-76l91 94q14 14 24.5 19.5z" />
    <glyph glyph-name="uni030B" unicode="&#x30b;" 
d="M144 699q10 7 22 7q15 0 24.5 -9.5t9.5 -24.5q0 -12 -9.5 -24.5t-31.5 -31.5l-54 -45h-65l81 104q13 17 23 24zM292 699q10 7 22 7q15 0 24.5 -9.5t9.5 -24.5q0 -12 -9.5 -24.5t-31.5 -31.5l-54 -45h-65l81 104q13 17 23 24z" />
    <glyph glyph-name="uni030B.case" 
d="M144 871q10 7 22 7q15 0 24.5 -9.5t9.5 -24.5q0 -12 -9.5 -24.5t-31.5 -31.5l-54 -45h-65l81 104q13 17 23 24zM292 871q10 7 22 7q15 0 24.5 -9.5t9.5 -24.5q0 -12 -9.5 -24.5t-31.5 -31.5l-54 -45h-65l81 104q13 17 23 24z" />
    <glyph glyph-name="uni030C.alt" 
d="M77.5 708.5q9.5 9.5 25.5 9.5t26.5 -9.5t10.5 -25.5q0 -13 -11 -41l-40 -107h-49l26 154q2 10 11.5 19.5z" />
    <glyph glyph-name="uni0302" unicode="&#x302;" 
d="M202 695q29 0 49 -19l112 -101h-94l-68 61l-67 -61h-94l112 101q20 19 50 19z" />
    <glyph glyph-name="uni0302.case" 
d="M202 867q29 0 49 -19l112 -101h-94l-68 61l-67 -61h-94l112 101q20 19 50 19z" />
    <glyph glyph-name="uni030C" unicode="&#x30c;" 
d="M152 588l-112 101h94l67 -61l68 61h94l-112 -101q-20 -19 -49 -19q-30 0 -50 19z" />
    <glyph glyph-name="uni030C.case" 
d="M152 760l-112 101h94l67 -61l68 61h94l-112 -101q-20 -19 -49 -19q-30 0 -50 19z" />
    <glyph glyph-name="uni0306" unicode="&#x306;" 
d="M91.5 603q-40.5 34 -51.5 86h68q8 -23 29.5 -38t48.5 -15q26 0 47.5 15t30.5 38h68q-11 -52 -52 -86t-94 -34q-54 0 -94.5 34z" />
    <glyph glyph-name="uni0306.case" 
d="M91.5 775q-40.5 34 -51.5 86h68q8 -23 29.5 -38t48.5 -15q26 0 47.5 15t30.5 38h68q-11 -52 -52 -86t-94 -34q-54 0 -94.5 34z" />
    <glyph glyph-name="uni030A" unicode="&#x30a;" 
d="M72 591q-32 32 -32 77t32 77t77 32t77 -32t32 -77t-32 -77t-77 -32t-77 32zM186 631q15 15 15 37t-15 37t-37 15t-37 -15t-15 -37t15 -37t37 -15t37 15z" />
    <glyph glyph-name="uni030A.case" 
d="M71.5 652q-31.5 32 -31.5 77t31.5 77t77.5 32t77.5 -32t31.5 -77t-31.5 -77t-77.5 -32t-77.5 32zM186 692.5q15 14.5 15 36.5t-15 36.5t-37 14.5t-37 -14.5t-15 -36.5t15 -36.5t37 -14.5t37 14.5z" />
    <glyph glyph-name="tildecomb" unicode="&#x303;" 
d="M236 581q-16 6 -37 18q-18 10 -29 14.5t-23 4.5q-18 0 -29 -10.5t-13 -30.5h-65q9 52 37 78t69 26q20 0 35.5 -6t35.5 -18q32 -19 53 -19q14 0 23 5.5t16 17.5q11 19 29 19q12 0 21.5 -9t9.5 -22q0 -12 -12 -30t-34 -31t-51 -13q-20 0 -36 6z" />
    <glyph glyph-name="tildecomb.case" 
d="M236 753q-16 6 -37 18q-18 10 -29 14.5t-23 4.5q-18 0 -29 -10.5t-13 -30.5h-65q9 52 37 78t69 26q20 0 35.5 -6t35.5 -18q32 -19 53 -19q14 0 23 5.5t16 17.5q11 19 29 19q12 0 21.5 -9t9.5 -22q0 -12 -12 -30t-34 -31t-51 -13q-20 0 -36 6z" />
    <glyph glyph-name="uni0304" unicode="&#x304;" 
d="M40 668h276v-67h-276v67z" />
    <glyph glyph-name="uni0304.case" 
d="M40 829h276v-67h-276v67z" />
    <glyph glyph-name="uni0312" unicode="&#x312;" 
d="M54 617q-14 23 -14 49q0 47 33.5 77t86.5 30l40 -34q-36 0 -65 -14t-29 -55q0 -21 12 -38.5t38 -26.5l-60 -26q-28 15 -42 38z" />
    <glyph glyph-name="uni0326" unicode="&#x326;" 
d="M105 -202q29 14 29 55q0 21 -12 38.5t-38 26.5l60 26q28 -15 42 -38t14 -49q0 -47 -33.5 -77t-86.5 -30l-40 34q36 0 65 14z" />
    <glyph glyph-name="uni0327" unicode="&#x327;" 
d="M40 -163l14 35q32 -14 58 -14q28 0 40.5 10t12.5 24q0 13 -9.5 21t-28.5 8q-17 0 -33 -4q-3 -1 -9 -1q-8 0 -13 4.5t-5 11.5q0 3 4 11l51 82l34 -21l-30 -49q22 4 30 4q33 0 51 -18.5t18 -44.5q0 -31 -25.5 -55t-71.5 -24q-39 0 -88 20z" />
    <glyph glyph-name="uni0328" unicode="&#x328;" 
d="M65.5 -149q-25.5 24 -25.5 58q0 37 24.5 63t73.5 44l59 -16q-49 -17 -68 -34.5t-19 -39.5q0 -20 13.5 -30.5t35.5 -10.5q21 0 38 8v-54q-34 -12 -63 -12q-43 0 -68.5 24z" />
    <glyph glyph-name="uni0328.alt" 
d="M65.5 -149q-25.5 24 -25.5 58q0 42 23 72t54 47h64q-30 -17 -50.5 -42.5t-20.5 -56.5q0 -22 13.5 -33t35.5 -11q21 0 38 8v-54q-34 -12 -63 -12q-43 0 -68.5 24z" />
    <glyph glyph-name="uni0328.case" 
d="M68 -151q-28 22 -28 60q0 69 75 103l82 -12q-45 -16 -66 -33t-21 -41q0 -20 13.5 -30.5t35.5 -10.5q21 0 38 8v-54q-28 -12 -59 -12q-42 0 -70 22z" />
    <glyph glyph-name="uni02C9" unicode="&#x2c9;" horiz-adv-x="356" 
d="M40 668h276v-67h-276v67z" />
    </font>
</defs>
</svg>
